Volbeat – Guitar Gangsters & Cadillac Blood (Limited Tour Edition)




No Cover available


Artist: Volbeat
Year: 2009
Genre: Metal
Notes: Discogs
Add. Notes: Limited Tour Edition
Watch Songs on: YouTube
Cover incl.: Yes
Encoder: FLAC
Bitrate: ~1000 kBit/s (44.1 kHz/16 Bit/s)
Log & Cue incl.: Yes/Yes
Size: 653,7 MB
Password: “slam” (without ” “)


All Downloads/Hosters are compatible

Download 1
KatFile.com
Turbobit.net
Rapidgator.net
FileFactory.com
Download 2
KatFile.com
Turbobit.net
Rapidgator.net
FileFactory.com

Tracklist:

1 Intro (End Of The Road) 1:05
2 Guitar Gangsters & Cadillac Blood 3:08
3 Back To Prom 1:51
4 Mary Ann's Place 3:41
5 Hallelujah Goat 3:30
6 Maybellene I Hofteholder 3:20
7 We 3:46
8 Still Counting 4:21
9 Light A Way 4:42
10 Wild Rover Of Hell 3:42
11 I'm So Lonesome I Could Cry 3:21
12 A Broken Man And The Dawn 4:45
13 Find That Soul 3:43
14 Making Believe 3:29

Bonus Tracks:
15 Rebel Monster (live) 
16 Soulweeper 2 (live) 

Bonus Videos
17 We (Bonus Video Clip) 
18 Maybellene I Hofteholder (Bonus Video Clip) 
19 Sad Man's Tongue - Live (Bonus Video Clip)

EAC-Log, CUE-Sheed & NFO:

Click to open spoiler
Exact Audio Copy V0.99 prebeta 5 from 4. May 2009

EAC extraction logfile from 24. August 2009, 14:57

Volbeat / Guitar Gangsters & Cadillac Blood – Limited Tour Edition

Used drive : HL-DT-STDVD-RAM GH15L Adapter: 0 ID: 1

Read mode : Secure
Utilize accurate stream : Yes
Defeat audio cache : Yes
Make use of C2 pointers : No

Read offset correction : 667
Overread into Lead-In and Lead-Out : No
Fill up missing offset samples with silence : Yes
Delete leading and trailing silent blocks : No
Null samples used in CRC calculations : No
Used interface : Native Win32 interface for Win NT & 2000

Used output format : Monkey’s Audio Lossless Encoder
Selected bitrate : High Lossless Compression
Quality : High
Add ID3 tag : Yes
Command line compressor : C:\Program Files\Exact Audio Copy\MAC.EXE

TOC of the extracted CD

Track | Start | Length | Start sector | End sector
———————————————————
1 | 0:00.00 | 1:05.51 | 0 | 4925
2 | 1:05.51 | 3:08.64 | 4926 | 19089
3 | 4:14.40 | 1:51.68 | 19090 | 27482
4 | 6:06.33 | 3:41.68 | 27483 | 44125
5 | 9:48.26 | 3:30.17 | 44126 | 59892
6 | 13:18.43 | 3:20.62 | 59893 | 74954
7 | 16:39.30 | 3:46.30 | 74955 | 91934
8 | 20:25.60 | 4:21.62 | 91935 | 111571
9 | 24:47.47 | 4:42.11 | 111572 | 132732
10 | 29:29.58 | 3:42.22 | 132733 | 149404
11 | 33:12.05 | 3:21.59 | 149405 | 164538
12 | 36:33.64 | 4:44.74 | 164539 | 185912
13 | 41:18.63 | 3:43.60 | 185913 | 202697
14 | 45:02.48 | 3:32.43 | 202698 | 218640
15 | 48:35.16 | 3:45.34 | 218641 | 235549
16 | 52:20.50 | 4:30.50 | 235550 | 255849
17 | 59:23.25 | 17:25.09 | 267250 | 345633

Range status and errors

Selected range

Filename C:\Documents and Settings\Administrator\Pulpit\VOLBEAT [2008] [CD] Guitar Gangsters & Cadillac Blood (Limited Tour Edition)\Volbeat – Guitar Gangsters & Cadillac Blood – Limited Tour Edition.wav

Peak level 99.9 %
Range quality 100.0 %
Copy CRC 5910A701
Copy OK

No errors occurred

End of status report

REM GENRE Metal
REM DATE 2009
REM DISCID EA120011
REM COMMENT “ExactAudioCopy v0.99pb5”
PERFORMER “Volbeat”
TITLE “Guitar Gangsters & Cadillac Blood – Limited Tour Edition”
FILE “Volbeat – Guitar Gangsters & Cadillac Blood – Limited Tour Edition.flac” WAVE
TRACK 01 AUDIO
TITLE “Intro (End Of The Road)”
PERFORMER “Volbeat”
INDEX 01 00:00:00
TRACK 02 AUDIO
TITLE “Guitar Gangsters & Cadillac Blood”
PERFORMER “Volbeat”
INDEX 01 01:05:51
TRACK 03 AUDIO
TITLE “Back To Prom”
PERFORMER “Volbeat”
INDEX 01 04:14:40
TRACK 04 AUDIO
TITLE “Mary Ann’s Place”
PERFORMER “Volbeat”
INDEX 01 06:06:33
TRACK 05 AUDIO
TITLE “Hallelujah Goat”
PERFORMER “Volbeat”
INDEX 01 09:48:26
TRACK 06 AUDIO
TITLE “Maybellene I Hofteholder”
PERFORMER “Volbeat”
INDEX 01 13:18:43
TRACK 07 AUDIO
TITLE “We”
PERFORMER “Volbeat”
INDEX 01 16:39:30
TRACK 08 AUDIO
TITLE “Still Counting”
PERFORMER “Volbeat”
INDEX 01 20:25:60
TRACK 09 AUDIO
TITLE “Light A Way”
PERFORMER “Volbeat”
INDEX 01 24:47:47
TRACK 10 AUDIO
TITLE “Wild Rover Of Hell”
PERFORMER “Volbeat”
INDEX 00 29:25:62
INDEX 01 29:29:58
TRACK 11 AUDIO
TITLE “I’m So Lonesome I Could Cry”
PERFORMER “Volbeat”
INDEX 00 33:11:05
INDEX 01 33:12:05
TRACK 12 AUDIO
TITLE “A Broken Man And The Dawn”
PERFORMER “Volbeat”
INDEX 00 36:32:45
INDEX 01 36:33:64
TRACK 13 AUDIO
TITLE “Find That Soul”
PERFORMER “Volbeat”
INDEX 00 41:17:56
INDEX 01 41:18:63
TRACK 14 AUDIO
TITLE “Making Believe (bonus)”
PERFORMER “Volbeat”
INDEX 00 45:01:58
INDEX 01 45:02:48
TRACK 15 AUDIO
TITLE “Rebel Monster (live)”
PERFORMER “Volbeat”
INDEX 00 48:30:70
INDEX 01 48:35:16
TRACK 16 AUDIO
TITLE “Soulweeper 2 (live)”
PERFORMER “Volbeat”
INDEX 01 52:20:50


0

Publication author

offline 4 days

Chaos

3
Comments: 4Publics: 3565Registration: 02-02-2019
Spread the Download

Leave a Reply

Your email address will not be published. Required fields are marked *

Enter the text from the image below
 

This site uses Akismet to reduce spam. Learn how your comment data is processed.