Volbeat – Beyond Hell / Above Heaven




No Cover available

Artist: Volbeat
Year: 2010
Genre: Metal
Notes: Discogs
Add. Notes:
Watch Songs on: YouTube
Cover incl.: Yes
Encoder: FLAC
Bitrate: ~1000 kBit/s (44.1 kHz/16 Bit/s)
Log & Cue incl.: Yes/Yes
Size: 424,9 MB
Password: “slam” (without ” “)


All Downloads/Hosters are compatible

Download 1
KatFile.com
Turbobit.net
Rapidgator.net
FileFactory.com
Download 2
KatFile.com
Turbobit.net
Rapidgator.net
FileFactory.com

Tracklist:

1 The Mirror And The Ripper 4:00
2 Heaven Nor Hell 5:22
3 Who They Are 3:42
4 Fallen 5:00
5 A Better Believer 3:24
6 7 Shots 3:44
7 A New Day 4:06
8 16 Dollars 2:48
9 A Warrior's Call 4:23
10 Magic Zone 3:51
11 Evelyn 3:29
12 Being 1 2:21
13 Thanks 3:42

EAC-Log, CUE-Sheed & NFO:

Click to open spoiler
Exact Audio Copy V0.99 prebeta 5 from 4. May 2009

EAC extraction logfile from 11. September 2010, 19:58

Volbeat / Beyond Hell-Above Heaven

Used drive : HL-DT-STDVD-RAM GH15L Adapter: 0 ID: 1

Read mode : Secure
Utilize accurate stream : Yes
Defeat audio cache : Yes
Make use of C2 pointers : No

Read offset correction : 667
Overread into Lead-In and Lead-Out : No
Fill up missing offset samples with silence : Yes
Delete leading and trailing silent blocks : No
Null samples used in CRC calculations : Yes
Used interface : Native Win32 interface for Win NT & 2000

Used output format : Internal WAV Routines
Sample format : 44.100 Hz; 16 Bit; Stereo

TOC of the extracted CD

Track | Start | Length | Start sector | End sector
———————————————————
1 | 0:00.00 | 4:00.11 | 0 | 18010
2 | 4:00.11 | 5:22.46 | 18011 | 42206
3 | 9:22.57 | 3:42.20 | 42207 | 58876
4 | 13:05.02 | 5:00.07 | 58877 | 81383
5 | 18:05.09 | 3:24.18 | 81384 | 96701
6 | 21:29.27 | 4:44.34 | 96702 | 118035
7 | 26:13.61 | 4:06.51 | 118036 | 136536
8 | 30:20.37 | 2:48.54 | 136537 | 149190
9 | 33:09.16 | 4:23.06 | 149191 | 168921
10 | 37:32.22 | 3:51.17 | 168922 | 186263
11 | 41:23.39 | 3:29.02 | 186264 | 201940
12 | 44:52.41 | 2:21.72 | 201941 | 212587
13 | 47:14.38 | 3:42.13 | 212588 | 229250
14 | 53:28.51 | 12:43.43 | 240651 | 297918

Range status and errors

Selected range

Filename D:\VOLBEAT [2010] [CD] Beyond Hell-Above Heaven [EAC-WV] by alexander038 [MeTaLMaDNeSS.TeaM]\Volbeat – Beyond Hell-Above Heaven.wav

Peak level 100.0 %
Range quality 99.9 %
Test CRC A2DAD678
Copy CRC A2DAD678
Copy OK

No errors occurred

AccurateRip summary

Track 1 not present in database
Track 2 not present in database
Track 3 not present in database
Track 4 not present in database
Track 5 not present in database
Track 6 not present in database
Track 7 not present in database
Track 8 not present in database
Track 9 not present in database
Track 10 not present in database
Track 11 not present in database
Track 12 not present in database
Track 13 not present in database

None of the tracks are present in the AccurateRip database

End of status report

REM GENRE Metal
REM DATE 2010
REM DISCID CD0F840E
REM COMMENT “ExactAudioCopy v0.99pb5”
PERFORMER “Volbeat”
TITLE “Beyond Hell-Above Heaven”
FILE “Volbeat – Beyond Hell-Above Heaven.flac” WAVE
TRACK 01 AUDIO
TITLE “The Mirror And The Ripper”
PERFORMER “Volbeat”
INDEX 01 00:00:00
TRACK 02 AUDIO
TITLE “Heaven Nor Hell”
PERFORMER “Volbeat”
INDEX 00 03:59:71
INDEX 01 04:00:11
TRACK 03 AUDIO
TITLE “Who They Are”
PERFORMER “Volbeat”
INDEX 01 09:22:57
TRACK 04 AUDIO
TITLE “Fallen”
PERFORMER “Volbeat”
INDEX 01 13:05:02
TRACK 05 AUDIO
TITLE “A Better Believer”
PERFORMER “Volbeat”
INDEX 01 18:05:09
TRACK 06 AUDIO
TITLE “7 Shots”
PERFORMER “Volbeat”
INDEX 01 21:29:27
TRACK 07 AUDIO
TITLE “A New Day”
PERFORMER “Volbeat”
INDEX 00 26:13:21
INDEX 01 26:13:61
TRACK 08 AUDIO
TITLE “16 Dollars”
PERFORMER “Volbeat”
INDEX 01 30:20:37
TRACK 09 AUDIO
TITLE “A Warrior’s Call”
PERFORMER “Volbeat”
INDEX 01 33:09:16
TRACK 10 AUDIO
TITLE “Mygic Zone”
PERFORMER “Volbeat”
INDEX 01 37:32:22
TRACK 11 AUDIO
TITLE “Evelyn”
PERFORMER “Volbeat”
INDEX 01 41:23:39
TRACK 12 AUDIO
TITLE “Being 1”
PERFORMER “Volbeat”
INDEX 01 44:52:41
TRACK 13 AUDIO
TITLE “Thanks”
PERFORMER “Volbeat”
INDEX 01 47:14:38


Leave a Reply

Your email address will not be published. Required fields are marked *

Enter the text from the image below
 

This site uses Akismet to reduce spam. Learn how your comment data is processed.