Various Artists – Virus 100




Artist: Various Artists
Year: 1992
Genre: Punk
Notes: Discogs
Add. Notes:
Cover incl.: Yes
Encoder: FLAC
Bitrate: ~900 kBit/s (44.1 kHz/16 Bit/s)
Log & Cue incl.: Yes
Size: 356,58 MB
Password: “slam” (without ” “)


All Downloads/Hosters are compatible

Download 1
Turbobit.net
KatFile.com
Rapidgator.net
Usersdrive.com
Download 2
Turbobit.net
KatFile.com
Rapidgator.net
Usersdrive.com

Tracklist:

1. Didjits - Police Truck - 2:18
2. Evan Johns & His H-Bombs* - Too Drunk To Fuck - 3:38
3. Alice Donut - Halloween - 5:11
4. Faith No More - Let's Lynch The Landlord - 2:53
5. Napalm Death - Nazi Punks Fuck Off - 1:21
6. Nomeansno - Forward To Death - 1:12
7. Steel Pole Bath Tub - Chemical Warfare - 3:31
8. Neurosis - Saturday Night Holocaust - 6:51
9. Les Thugs - Moon Over Marin - 5:28
10. Victims Family - Ill In The Head - 2:41
11. Disposable Heroes Of Hiphoprisy* - California Uber 
Alles - 4:47
12. Mojo Nixon & The Toadliquors - Winnebago Warrior - 
3:29
13. Sepultura - Drug Me - 1:49
14. Kramer (2) - Insight - 3:06
15. L7 - Let's Lynch The Landlord - 2:01
16. Sister Double Happiness - Holiday In Cambodia - 4:16

EAC-Log, CUE-Sheed & NFO:

Click to open spoiler
Отчёт EAC об извлечении, выполненном 3. января 2009, 13:25 для диска:
Various / Virus 100 Dead Kennedys tribute

Дисковод: Optiarc DVD RW AD-7203S Adapter: 2 ID: 0
Режим чтения: Достоверный (C2: нет, Точный поток: да, Отключение кэша: да)
Коррекция смещения при чтении: 48
Способность читать области Lead-in и Lead-out : Нет

Выходной формат: Внутренние WAV-операции
44.100 Гц; 16 бит; стерео

Другие параметры:
Заполнение пропущенных сэмплов тишиной : Да
Удаление блоков с тишиной в начале и конце : Нет
Встроенный Win32-интерфейс для Win NT/2000

Характеристики диапазона извлечения и сообщения об ошибках
Выбранный диапазон
Имя файла D:\Z_DISTRIBUTIVES\downtor\Dead Kennedys [discography]\Various – Virus 100 Dead Kennedys tribute\Various – Virus 100 Dead Kennedys tribute.wav

Пиковый уровень 100.0 %
Качество диапазона 99.9 %
CRC 64A6B76B
Копирование… OK

Ошибок не произошло

Конец отчёта

REM GENRE “Punk Rock”
REM DATE 1992
REM DISCID D60CD010
REM COMMENT “ExactAudioCopy v0.95b4”
PERFORMER “Various”
TITLE “Virus 100 Dead Kennedys tribute”
FILE “Various – Virus 100 Dead Kennedys tribute.flac” WAVE
TRACK 01 AUDIO
TITLE “Police Truck”
PERFORMER “Didjits”
INDEX 01 00:00:00
TRACK 02 AUDIO
TITLE “Too Drunk To Fuck”
PERFORMER “Evan Johns And His H-Bombs”
INDEX 01 02:18:27
TRACK 03 AUDIO
TITLE “Halloween”
PERFORMER “Alice Donut”
INDEX 00 05:57:03
INDEX 01 05:57:12
TRACK 04 AUDIO
TITLE “Let’s Lynch the Landlord”
PERFORMER “Faith No More”
INDEX 01 11:08:30
TRACK 05 AUDIO
TITLE “Nazi Punks Fuck Off”
PERFORMER “Napalm Death”
INDEX 01 14:02:22
TRACK 06 AUDIO
TITLE “Forward To Death”
PERFORMER “Nomeansno”
INDEX 01 15:24:12
TRACK 07 AUDIO
TITLE “Chemical Warfare”
PERFORMER “Steel Pole Bath Tub”
INDEX 01 16:36:65
TRACK 08 AUDIO
TITLE “Saturday Night Holocaust”
PERFORMER “Neurosis”
INDEX 01 20:08:20
TRACK 09 AUDIO
TITLE “Moon Over Marin”
PERFORMER “Les Thugs”
INDEX 00 26:58:69
INDEX 01 27:00:00
TRACK 10 AUDIO
TITLE “Ill In The Head”
PERFORMER “Victims Family”
INDEX 01 32:28:30
TRACK 11 AUDIO
TITLE “California Uber Alles”
PERFORMER “Disposable Heroes Of Hiphoprisy”
INDEX 01 35:09:67
TRACK 12 AUDIO
TITLE “Winnebago Warrior”
PERFORMER “Mojo Nixon And the Toadliquors”
INDEX 01 39:57:22
TRACK 13 AUDIO
TITLE “Drug Me”
PERFORMER “Sepultura”
INDEX 01 43:26:65
TRACK 14 AUDIO
TITLE “Insight”
PERFORMER “Kramer”
INDEX 01 45:16:32
TRACK 15 AUDIO
TITLE “Let’s Lynch The Landlord”
PERFORMER “L7”
INDEX 01 48:22:35
TRACK 16 AUDIO
TITLE “Holiday In Cambodia”
PERFORMER “Sister Double Happiness”
INDEX 00 50:24:02
INDEX 01 50:24:07


Leave a Reply

Your email address will not be published. Required fields are marked *

Enter the text from the image below
 

This site uses Akismet to reduce spam. Learn how your comment data is processed.