Various Artists – Sicher gibt es bessere Zeiten Vol. 5




Artist: Various Artists
Year: 1996
Genre: Punk
Notes: Discogs
Add. Notes:
Encoder: FLAC
Bitrate: ~900 kBit/s (VBR)
Size: 429,35 MB
Password: “slam” (without ” “)


Tracklist:

1. Dekadenz	Festung Europa	
2. The Annoyed	Tod & Co. Kg	
3. N.O.E.*	Leere Gesichter	
4. DAT (9)Die Angepissten Turnbeutel*	Party	
5. Popperklopper	Das Deutsche Heer	
6. Bockbierhagel	Giftgasangriff	
7. Pils Angels	Fußball-Hooligan	
8. Kalte Zeiten	Verlogene Zeitgeister	
9. S.O.R.B. (Sone Olle Rödel-Band)	Meiern	
10. The Strikes (2)	Einsamer Punker	
11. Das Untergangskommando*	Sie Marschieren 
Wieder	
12. Håll Kaeften	Sex & Politik	
13. No Exit (2)	St. Pauli	
14. Popperklopper	Perverse Welt	
15. The Annoyed	Ich Bin Ich	
16. Abschaum	Faschopoli	
17. Die Angepissten Turnbeutel*	Ökoschwein
	
18. The Strikes (2)	Blick In Die Zukunft	
19. N.O.E.*	Scheißlied	
20. LöSchanal	Freiheit [Demoversion]	
21. Die Dikkmannz	Pank	
22. The Strikes (2)	Deutsche Polizisten	
23. No Exit (2)	Partysong

EAC-Log, CUE-Sheed & NFO:

Click to open spoiler
Exact Audio Copy V1.3 from 2. September 2016

EAC extraction logfile from 8. March 2019, 21:46

Various Artists / Sicher gibt es bessere Zeiten Vol.05

Used drive : HL-DT-STDVDRAM GUE0N Adapter: 1 ID: 0

Read mode : Secure
Utilize accurate stream : Yes
Defeat audio cache : Yes
Make use of C2 pointers : No

Read offset correction : 102
Overread into Lead-In and Lead-Out : No
Fill up missing offset samples with silence : Yes
Delete leading and trailing silent blocks : No
Null samples used in CRC calculations : Yes
Used interface : Native Win32 interface for Win NT & 2000
Gap handling : Appended to previous track

Used output format : User Defined Encoder
Selected bitrate : 1024 kBit/s
Quality : High
Add ID3 tag : No
Command line compressor : C:\Program Files (x86)\Exact Audio Copy\FLAC\FLAC.EXE
Additional command line options : -8 -V -T “ARTIST=%artist%” -T “TITLE=%title%” -T “ALBUM=%albumtitle%” -T “DATE=%year%” -T “TRACKNUMBER=%tracknr%” -T “GENRE=%genre%” -T “COMMENT=%comment%” -T “BAND=%albuminterpret%” -T “COMPOSER=%composer%” %haslyrics%–tag-from-file=LYRICS=”%lyricsfile%”%haslyrics% -T “DISCNUMBER=%cdnumber%” -T “TOTALDISCS=%totalcds%” -T “TOTALTRACKS=%numtracks%” %hascover%–picture=”%coverfile%”%hascover% %source% -o %dest%

TOC of the extracted CD

Track | Start | Length | Start sector | End sector
———————————————————
1 | 0:00.00 | 2:48.70 | 0 | 12669
2 | 2:48.70 | 3:04.10 | 12670 | 26479
3 | 5:53.05 | 3:48.07 | 26480 | 43586
4 | 9:41.12 | 1:56.68 | 43587 | 52354
5 | 11:38.05 | 2:37.15 | 52355 | 64144
6 | 14:15.20 | 3:03.45 | 64145 | 77914
7 | 17:18.65 | 2:25.20 | 77915 | 88809
8 | 19:44.10 | 3:03.07 | 88810 | 102541
9 | 22:47.17 | 1:16.58 | 102542 | 108299
10 | 24:04.00 | 3:31.70 | 108300 | 124194
11 | 27:35.70 | 3:27.00 | 124195 | 139719
12 | 31:02.70 | 1:32.42 | 139720 | 146661
13 | 32:35.37 | 4:00.38 | 146662 | 164699
14 | 36:36.00 | 2:01.72 | 164700 | 173846
15 | 38:37.72 | 2:55.35 | 173847 | 187006
16 | 41:33.32 | 1:35.30 | 187007 | 194161
17 | 43:08.62 | 3:30.13 | 194162 | 209924
18 | 46:39.00 | 2:07.00 | 209925 | 219449
19 | 48:46.00 | 3:04.00 | 219450 | 233249
20 | 51:50.00 | 2:59.72 | 233250 | 246746
21 | 54:49.72 | 1:18.05 | 246747 | 252601
22 | 56:08.02 | 3:32.48 | 252602 | 268549
23 | 59:40.50 | 3:33.25 | 268550 | 284549

Track 1

Filename D:\Eigene Musik\Various Artists\Sicher gibt es bessere Zeiten Vol.05\01. Dekadenz – Festung Europa.wav

Pre-gap length 0:00:02.00

Peak level 99.0 %
Extraction speed 1.9 X
Track quality 100.0 %
Copy CRC A9C3F97A
Accurately ripped (confidence 4) [92399160] (AR v2)
Copy OK

Track 2

Filename D:\Eigene Musik\Various Artists\Sicher gibt es bessere Zeiten Vol.05\02. The Annoyed – Tod & Co. KG.wav

Pre-gap length 0:00:01.33

Peak level 98.9 %
Extraction speed 2.3 X
Track quality 100.0 %
Copy CRC 4DD5B147
Accurately ripped (confidence 4) [55E85588] (AR v2)
Copy OK

Track 3

Filename D:\Eigene Musik\Various Artists\Sicher gibt es bessere Zeiten Vol.05\03. N.O.E. – Leere Gesichter.wav

Pre-gap length 0:00:01.03

Peak level 98.7 %
Extraction speed 2.2 X
Track quality 99.9 %
Copy CRC EEB53BDE
Accurately ripped (confidence 4) [AACCC709] (AR v2)
Copy OK

Track 4

Filename D:\Eigene Musik\Various Artists\Sicher gibt es bessere Zeiten Vol.05\04. Die Angepissten Turnbeutel – Party.wav

Peak level 98.7 %
Extraction speed 2.4 X
Track quality 100.0 %
Copy CRC 071E0E8A
Accurately ripped (confidence 4) [586D6D80] (AR v2)
Copy OK

Track 5

Filename D:\Eigene Musik\Various Artists\Sicher gibt es bessere Zeiten Vol.05\05. Popperklopper – Das deutsche Heer.wav

Pre-gap length 0:00:01.10

Peak level 99.0 %
Extraction speed 2.6 X
Track quality 100.0 %
Copy CRC 77CB4330
Accurately ripped (confidence 3) [8180153F] (AR v2)
Copy OK

Track 6

Filename D:\Eigene Musik\Various Artists\Sicher gibt es bessere Zeiten Vol.05\06. Bockbierhagel – Giftgasangriff.wav

Pre-gap length 0:00:01.05

Peak level 98.0 %
Extraction speed 2.3 X
Track quality 99.9 %
Copy CRC C84A9641
Accurately ripped (confidence 3) [B101D742] (AR v2)
Copy OK

Track 7

Filename D:\Eigene Musik\Various Artists\Sicher gibt es bessere Zeiten Vol.05\07. Pils-Angels – Fußball-Hooligan.wav

Peak level 98.4 %
Extraction speed 2.9 X
Track quality 100.0 %
Copy CRC DD4962DA
Accurately ripped (confidence 3) [2452ACC8] (AR v2)
Copy OK

Track 8

Filename D:\Eigene Musik\Various Artists\Sicher gibt es bessere Zeiten Vol.05\08. Kalte Zeiten – Verlogene Zeitgeister.wav

Pre-gap length 0:00:01.28

Peak level 98.5 %
Extraction speed 3.1 X
Track quality 100.0 %
Copy CRC 6098CFCE
Accurately ripped (confidence 4) [120EC296] (AR v2)
Copy OK

Track 9

Filename D:\Eigene Musik\Various Artists\Sicher gibt es bessere Zeiten Vol.05\09. S.O.R.B. – Meiern.wav

Pre-gap length 0:00:01.02

Peak level 98.8 %
Extraction speed 2.5 X
Track quality 100.0 %
Copy CRC 61E5FD55
Accurately ripped (confidence 4) [48AE32CD] (AR v2)
Copy OK

Track 10

Filename D:\Eigene Musik\Various Artists\Sicher gibt es bessere Zeiten Vol.05\10. The Strikes – Einsamer Punker.wav

Pre-gap length 0:00:01.35

Peak level 98.0 %
Extraction speed 3.7 X
Track quality 100.0 %
Copy CRC F4D9732F
Accurately ripped (confidence 4) [6A91A8D6] (AR v2)
Copy OK

Track 11

Filename D:\Eigene Musik\Various Artists\Sicher gibt es bessere Zeiten Vol.05\11. Das Untergangskommando – Sie marschieren wieder.wav

Pre-gap length 0:00:01.18

Peak level 97.7 %
Extraction speed 3.5 X
Track quality 100.0 %
Copy CRC 188AB071
Accurately ripped (confidence 3) [BA2C19C8] (AR v2)
Copy OK

Track 12

Filename D:\Eigene Musik\Various Artists\Sicher gibt es bessere Zeiten Vol.05\12. Håll Kaeften – Sex und Politik.wav

Pre-gap length 0:00:01.23

Peak level 98.2 %
Extraction speed 2.8 X
Track quality 100.0 %
Copy CRC 97BE5E80
Accurately ripped (confidence 3) [B57C7D8C] (AR v2)
Copy OK

Track 13

Filename D:\Eigene Musik\Various Artists\Sicher gibt es bessere Zeiten Vol.05\13. No Exit – St. Pauli.wav

Pre-gap length 0:00:01.25

Peak level 98.1 %
Extraction speed 3.5 X
Track quality 100.0 %
Copy CRC 734AE885
Accurately ripped (confidence 4) [8F96625A] (AR v2)
Copy OK

Track 14

Filename D:\Eigene Musik\Various Artists\Sicher gibt es bessere Zeiten Vol.05\14. Popperklopper – Perverse Welt.wav

Peak level 97.9 %
Extraction speed 3.3 X
Track quality 100.0 %
Copy CRC 281CA3B0
Accurately ripped (confidence 4) [2117CD9D] (AR v2)
Copy OK

Track 15

Filename D:\Eigene Musik\Various Artists\Sicher gibt es bessere Zeiten Vol.05\15. The Annoyed – Ich bin Ich.wav

Peak level 98.2 %
Extraction speed 3.1 X
Track quality 100.0 %
Copy CRC FA283A35
Accurately ripped (confidence 4) [15761346] (AR v2)
Copy OK

Track 16

Filename D:\Eigene Musik\Various Artists\Sicher gibt es bessere Zeiten Vol.05\16. Abschaum – Faschopoli.wav

Peak level 98.6 %
Extraction speed 3.2 X
Track quality 100.0 %
Copy CRC 03120208
Accurately ripped (confidence 4) [C8BD76B4] (AR v2)
Copy OK

Track 17

Filename D:\Eigene Musik\Various Artists\Sicher gibt es bessere Zeiten Vol.05\17. Die Angepissten Turnbeutel – Ökoschwein.wav

Peak level 99.0 %
Extraction speed 3.2 X
Track quality 99.9 %
Copy CRC 3195EA21
Accurately ripped (confidence 4) [1579DBB7] (AR v2)
Copy OK

Track 18

Filename D:\Eigene Musik\Various Artists\Sicher gibt es bessere Zeiten Vol.05\18. The Strikes – Blick in die Zukunft.wav

Peak level 97.4 %
Extraction speed 3.5 X
Track quality 100.0 %
Copy CRC 671C0F56
Accurately ripped (confidence 4) [A06DB216] (AR v2)
Copy OK

Track 19

Filename D:\Eigene Musik\Various Artists\Sicher gibt es bessere Zeiten Vol.05\19. N.O.E. – Scheißlied.wav

Peak level 98.4 %
Extraction speed 3.9 X
Track quality 100.0 %
Copy CRC 9F436A4B
Accurately ripped (confidence 4) [98768B51] (AR v2)
Copy OK

Track 20

Filename D:\Eigene Musik\Various Artists\Sicher gibt es bessere Zeiten Vol.05\20. Löschanal – Freiheit (Demo Version).wav

Peak level 98.1 %
Extraction speed 4.0 X
Track quality 100.0 %
Copy CRC 74E8F926
Accurately ripped (confidence 3) [8EBF6417] (AR v2)
Copy OK

Track 21

Filename D:\Eigene Musik\Various Artists\Sicher gibt es bessere Zeiten Vol.05\21. Die Dickmannz – Pank.wav

Peak level 97.4 %
Extraction speed 3.1 X
Track quality 100.0 %
Copy CRC A97E11EC
Accurately ripped (confidence 3) [2E2FC8DF] (AR v2)
Copy OK

Track 22

Filename D:\Eigene Musik\Various Artists\Sicher gibt es bessere Zeiten Vol.05\22. The Strikes – Deutsche Polizisten.wav

Peak level 98.4 %
Extraction speed 4.4 X
Track quality 100.0 %
Copy CRC EAAE2ACD
Accurately ripped (confidence 3) [ABC5A1D0] (AR v2)
Copy OK

Track 23

Filename D:\Eigene Musik\Various Artists\Sicher gibt es bessere Zeiten Vol.05\23. No Exit – Partysong.wav

Peak level 98.2 %
Extraction speed 4.4 X
Track quality 100.0 %
Copy CRC 1CFAACD9
Accurately ripped (confidence 3) [D316A2E4] (AR v2)
Copy OK

All tracks accurately ripped

No errors occurred

End of status report

—- CUETools DB Plugin V2.1.6

[CTDB TOCID: BHv8opZMBqOkSNW5C12SiU0OirA-] found
Submit result: BHv8opZMBqOkSNW5C12SiU0OirA- has been confirmed
Track | CTDB Status
1 | (8/8) Accurately ripped
2 | (8/8) Accurately ripped
3 | (8/8) Accurately ripped
4 | (7/8) Accurately ripped
5 | (7/8) Accurately ripped
6 | (6/8) Accurately ripped
7 | (6/8) Accurately ripped
8 | (6/8) Accurately ripped
9 | (6/8) Accurately ripped
10 | (6/8) Accurately ripped
11 | (7/8) Accurately ripped
12 | (7/8) Accurately ripped
13 | (7/8) Accurately ripped
14 | (7/8) Accurately ripped
15 | (7/8) Accurately ripped
16 | (6/8) Accurately ripped
17 | (6/8) Accurately ripped
18 | (7/8) Accurately ripped
19 | (6/8) Accurately ripped
20 | (7/8) Accurately ripped
21 | (8/8) Accurately ripped
22 | (7/8) Accurately ripped
23 | (6/8) Accurately ripped

==== Log checksum C047DE166C841E886606C84601F40E41947569602A884A111365C0112B8DD8E2 ====

REM GENRE “Punk Rock”
REM DATE 1996
REM DISCID 520ED217
REM COMMENT “ExactAudioCopy v1.3”
CATALOG 0000000000000
PERFORMER “Various Artists”
TITLE “Sicher gibt es bessere Zeiten Vol.05”
REM COMPOSER “”
FILE “Various Artists\Sicher gibt es bessere Zeiten Vol.05\01. Dekadenz – Festung Europa.wav” WAVE
TRACK 01 AUDIO
TITLE “Festung Europa”
PERFORMER “Dekadenz”
REM COMPOSER “”
INDEX 01 00:00:00
TRACK 02 AUDIO
TITLE “Tod & Co. KG”
PERFORMER “The Annoyed”
REM COMPOSER “”
INDEX 00 02:47:37
FILE “Various Artists\Sicher gibt es bessere Zeiten Vol.05\02. The Annoyed – Tod & Co. KG.wav” WAVE
INDEX 01 00:00:00
TRACK 03 AUDIO
TITLE “Leere Gesichter”
PERFORMER “N.O.E.”
REM COMPOSER “”
INDEX 00 03:03:07
FILE “Various Artists\Sicher gibt es bessere Zeiten Vol.05\03. N.O.E. – Leere Gesichter.wav” WAVE
INDEX 01 00:00:00
FILE “Various Artists\Sicher gibt es bessere Zeiten Vol.05\04. Die Angepissten Turnbeutel – Party.wav” WAVE
TRACK 04 AUDIO
TITLE “Party”
PERFORMER “Die Angepissten Turnbeutel”
REM COMPOSER “”
INDEX 01 00:00:00
TRACK 05 AUDIO
TITLE “Das deutsche Heer”
PERFORMER “Popperklopper”
REM COMPOSER “”
INDEX 00 01:55:58
FILE “Various Artists\Sicher gibt es bessere Zeiten Vol.05\05. Popperklopper – Das deutsche Heer.wav” WAVE
INDEX 01 00:00:00
TRACK 06 AUDIO
TITLE “Giftgasangriff”
PERFORMER “Bockbierhagel”
REM COMPOSER “”
INDEX 00 02:36:10
FILE “Various Artists\Sicher gibt es bessere Zeiten Vol.05\06. Bockbierhagel – Giftgasangriff.wav” WAVE
INDEX 01 00:00:00
FILE “Various Artists\Sicher gibt es bessere Zeiten Vol.05\07. Pils-Angels – Fußball-Hooligan.wav” WAVE
TRACK 07 AUDIO
TITLE “Fußball-Hooligan”
PERFORMER “Pils-Angels”
REM COMPOSER “”
INDEX 01 00:00:00
TRACK 08 AUDIO
TITLE “Verlogene Zeitgeister”
PERFORMER “Kalte Zeiten”
REM COMPOSER “”
INDEX 00 02:23:67
FILE “Various Artists\Sicher gibt es bessere Zeiten Vol.05\08. Kalte Zeiten – Verlogene Zeitgeister.wav” WAVE
INDEX 01 00:00:00
TRACK 09 AUDIO
TITLE “Meiern”
PERFORMER “S.O.R.B.”
REM COMPOSER “”
INDEX 00 03:02:05
FILE “Various Artists\Sicher gibt es bessere Zeiten Vol.05\09. S.O.R.B. – Meiern.wav” WAVE
INDEX 01 00:00:00
TRACK 10 AUDIO
TITLE “Einsamer Punker”
PERFORMER “The Strikes”
REM COMPOSER “”
INDEX 00 01:15:23
FILE “Various Artists\Sicher gibt es bessere Zeiten Vol.05\10. The Strikes – Einsamer Punker.wav” WAVE
INDEX 01 00:00:00
TRACK 11 AUDIO
TITLE “Sie marschieren wieder”
PERFORMER “Das Untergangskommando”
REM COMPOSER “”
INDEX 00 03:30:52
FILE “Various Artists\Sicher gibt es bessere Zeiten Vol.05\11. Das Untergangskommando – Sie marschieren wieder.wav” WAVE
INDEX 01 00:00:00
TRACK 12 AUDIO
TITLE “Sex und Politik”
PERFORMER “Håll Kaeften”
REM COMPOSER “”
INDEX 00 03:25:52
FILE “Various Artists\Sicher gibt es bessere Zeiten Vol.05\12. Håll Kaeften – Sex und Politik.wav” WAVE
INDEX 01 00:00:00
TRACK 13 AUDIO
TITLE “St. Pauli”
PERFORMER “No Exit”
REM COMPOSER “”
INDEX 00 01:31:17
FILE “Various Artists\Sicher gibt es bessere Zeiten Vol.05\13. No Exit – St. Pauli.wav” WAVE
INDEX 01 00:00:00
FILE “Various Artists\Sicher gibt es bessere Zeiten Vol.05\14. Popperklopper – Perverse Welt.wav” WAVE
TRACK 14 AUDIO
TITLE “Perverse Welt”
PERFORMER “Popperklopper”
REM COMPOSER “”
INDEX 01 00:00:00
FILE “Various Artists\Sicher gibt es bessere Zeiten Vol.05\15. The Annoyed – Ich bin Ich.wav” WAVE
TRACK 15 AUDIO
TITLE “Ich bin Ich”
PERFORMER “The Annoyed”
REM COMPOSER “”
INDEX 01 00:00:00
FILE “Various Artists\Sicher gibt es bessere Zeiten Vol.05\16. Abschaum – Faschopoli.wav” WAVE
TRACK 16 AUDIO
TITLE “Faschopoli”
PERFORMER “Abschaum”
REM COMPOSER “”
INDEX 01 00:00:00
FILE “Various Artists\Sicher gibt es bessere Zeiten Vol.05\17. Die Angepissten Turnbeutel – Ökoschwein.wav” WAVE
TRACK 17 AUDIO
TITLE “Ökoschwein”
PERFORMER “Die Angepissten Turnbeutel”
REM COMPOSER “”
INDEX 01 00:00:00
FILE “Various Artists\Sicher gibt es bessere Zeiten Vol.05\18. The Strikes – Blick in die Zukunft.wav” WAVE
TRACK 18 AUDIO
TITLE “Blick in die Zukunft”
PERFORMER “The Strikes”
REM COMPOSER “”
INDEX 01 00:00:00
FILE “Various Artists\Sicher gibt es bessere Zeiten Vol.05\19. N.O.E. – Scheißlied.wav” WAVE
TRACK 19 AUDIO
TITLE “Scheißlied”
PERFORMER “N.O.E.”
REM COMPOSER “”
INDEX 01 00:00:00
FILE “Various Artists\Sicher gibt es bessere Zeiten Vol.05\20. Löschanal – Freiheit (Demo Version).wav” WAVE
TRACK 20 AUDIO
TITLE “Freiheit (Demo Version)”
PERFORMER “Löschanal”
REM COMPOSER “”
INDEX 01 00:00:00
FILE “Various Artists\Sicher gibt es bessere Zeiten Vol.05\21. Die Dickmannz – Pank.wav” WAVE
TRACK 21 AUDIO
TITLE “Pank”
PERFORMER “Die Dickmannz”
REM COMPOSER “”
INDEX 01 00:00:00
FILE “Various Artists\Sicher gibt es bessere Zeiten Vol.05\22. The Strikes – Deutsche Polizisten.wav” WAVE
TRACK 22 AUDIO
TITLE “Deutsche Polizisten”
PERFORMER “The Strikes”
REM COMPOSER “”
INDEX 01 00:00:00
FILE “Various Artists\Sicher gibt es bessere Zeiten Vol.05\23. No Exit – Partysong.wav” WAVE
TRACK 23 AUDIO
TITLE “Partysong”
PERFORMER “No Exit”
REM COMPOSER “”
INDEX 01 00:00:00

Leave a Reply

Your email address will not be published. Required fields are marked *

This site uses Akismet to reduce spam. Learn how your comment data is processed.