Various Artists – Short Music for Short People




Artist: Various Artists
Year: 2000
Genre: Punk
Notes: Discogs
Add. Notes:
Cover incl.: Yes
Encoder: FLAC
Bitrate: ~1000 kBit/s (44.1 kHz/16 Bit/s)
Log & Cue incl.: Yes
Size: 370,24 MB
Password: “slam” (without ” “)


All Downloads/Hosters are compatible

Download 1
Turbobit.net
Rapidgator.net
KatFile.com
UploadRar.com
Download 2
Turbobit.net
Rapidgator.net
KatFile.com
UploadRar.com
Download 3
Turbobit.net
Rapidgator.net
KatFile.com
UploadRar.com

Tracklist:

1. Fizzy Bangers 	Short Attention Span 	0:08
2. Less Than Jake 	Anchor 	0:30
3. Teen Idols 	Ketchup Soup 	0:30
4. Terrorgruppe 	All Cops Are Bastards 	0:24
5. Good Riddance 	Overcoming Learned Behavior 
	0:27
6. Chixdiggit 	Quit Your Job 	0:24
7. The Living End 	Ready 	0:34
8. Bad Religion 	Out Of Hand 	0:40
9. Hi-Standard 	Asian Pride 	0:30
10. Aerobitch 	Steamroller Blues 	0:26
11. Nerf Herder 	Doin' Laundry 	0:30
12. Bigwig 	Freegan 	0:32
13. Undeclinable Ambuscade 	Not Again 	0:21
14. Fury 66 	Waste Away 	0:29
15. The Ataris 	The Radio Still Sucks 	0:28
16. Unwritten Law 	Armageddon Singalong 	0:36
17. A.F.I.* 	Hearts Frozen Soil Sod Once More By 
The Spring Of Rage, Despair, And Hopelessness 	0:32
18. Dillinger Four 	Farts Are Jazz To Assholes 	0:33
19. Spread 	Surf City 	0:28
20. Swingin' Utters 	Back To You 	0:33
21. The Barfeeders* 	Outhouse Of Doom 	0:34
22. Citizen Fish 	Alienation 	0:33
23. Blink 182* 	Family Reunion 	0:36
24. Goober Patrol 	Mirror, Signal, Wheelspin 	0:28
25. Killswitch 	Saturday Night 	0:32
26. Enemy You 	Bedroom Windows 	0:24
27. No Use For A Name 	Sara Fisher 	0:30
28. Green Day 	The Ballad Of Wilhelm Fink 	0:32
29. Consumed 	Delraiser Part III: Del On Earth 
	0:27
30. The Mr. T Experience 	Told You Once 	0:11
31. Lagwagon 	Randal Gets Drunk 	0:28
32. Gwar 	Fishfuck 	0:32
33. The Dickies 	Howdy Doody In The Woodshed 
	0:33
34. Samiam 	Long Enough To Forget You 	0:30
35. Dogpiss 	Erik Sandin's Stand-In 	0:33
36. 59 Times The Pain 	We Want The Kids 	0:21
37. Bracket 	Warren's Song Part 8 	0:31
38. Nomeansno 	No Fgcnuik 	0:31
39. Descendents 	I Like Food 	0:17
40. Dance Hall Crashers 	Triple Track 	0:33
41. Guttermouth 	Don Camero Lost His Mind 	0:29
42. Limp (2) 	X-99 	0:38
43. Jughead's Revenge 	Faust 	0:31
44. Circle Jerks 	Deny Everything 	0:25
45. The Offspring 	Hand Grenades 	0:36
46. Mad Caddies 	Mike Booted Our First Song, So We 
Recorded This One Instead 	0:28
47. The Criminals 	Union Yes 	0:34
48. Screeching Weasel 	Dirty Needles 	0:28
49. One Man Army (2) 	300 Miles 	0:29
50. Strung Out 	Klawsterfobia 	0:30
51. Youth Brigade 	You Don't Know Shit 	0:35
52. Groovie Ghoulies 	Doin' Fine 	0:27
53. Tilt (2) 	John For The Working Man 	0:31
54. Spazz 	A Prayer For The Complete And Utter 
Eradication Of All Generic Pop-Punk 	0:26
55. The Damned 	It's A Real Time Thing 	0:31
56. 88 Fingers Louie 	All My Friends Are In 
Popular Bands 	0:31
57. D.O.A. (2) 	I Hate Puck Rock 	0:31
58. Pulley 	Fun 	0:31
59. The Vandals 	To All The Kids 	0:29
60. Pennywise 	30 Seconds Till The End Of The World 
	0:32
61. No Fun At All 	Get A Grip 	0:27
62. Sick Of It All 	Blatty (Human Egg) 	0:32
63. All (2) 	I Got None 	0:29
64. NOFX 	See Her Pee 	0:32
65. 7 Seconds 	F.O.F.O.D. 	0:31
66. Rancid 	Blacklisted 	0:27
67. Diesel Boy 	Chandeliers And Souvenirs 	0:29
68. Adrenalin O.D. 	Your Kung-Fu Is Old... And Now You 
Must Die!!! 	0:31
69. Frenzal Rhomb 	My Pants Keep Falling Down 	0:32
70. The Queers 	I Hate Your Fucking Guts 	0:30
71. D.I. 	Comin' To Your Town 	0:26
72. Black Flag 	Spray Paint 	0:33
73. White Flag 	Rage Against The Machine Are 
Capitalist Phonies 	0:28
74. Anti-Flag 	Bring It To An End 	0:28
75. Avail 	Not A Happy Man 	0:25
76. The Real McKenzies 	Old Mrs. Cuddy 	0:31
77. Agnostic Front 	Traitor 	0:31
78. Down By Law (2) 	Life Rules 101 	0:31
79. Radio Days 	Wake Up 	0:32
80. Useless ID 	Too Bad You Don't Get It 	0:34
81. Poison Idea 	Humanity 	0:35
82. Men O' Steel 	In Your Head 	0:25
83. Subhumans 	Supermarket Forces 	0:32
84. Buck Wild 	Tribute To The Mammal 	0:23
85. Lunachicks 	Pretty Houses 	0:28
86. Dwarves 	The Band That Wouldn't Die 	0:38
87. The Bouncing Souls 	Like A Fish In Water 
	0:34
88. Trigger Happy (2) 	Turn It Up 	0:30
89. One Hit Wonder (2) 	Madam's Apple 	0:32
90. Hotbox (2) 	Staggering 	0:28
91. 20% 	DMV 	0:29
92. Snuff (3) 	Big Fat Skinhead 	0:30
93. The Muffs 	Pimmel 	0:34
94. H2O (7) 	Mr. Brett, Please Put Down Your Gun 
	0:30
95. Bodyjar 	Wake Up 	0:33
96. Nicotine (3) 	Eyez 	0:26
97. Satanic Surfers 	Another Stale Cartoon 	0:31
98. Ten Foot Pole 	I Don't Mind 	0:32
99a. Caustic Soda 	Welcome To Dumpsville, Population: 
You 	0:24
99b. Misfits 	NY Ranger 	0:28
99c. Wizo 	The Count 	0:31

EAC-Log, CUE-Sheed & NFO:

Click to open spoiler
Exact Audio Copy V0.99 prebeta 4 from 23. January 2008

EAC extraction logfile from 21. July 2008, 0:05

Various / Short Music For Short People

Used drive : SONY DVD RW DW-D22A Adapter: 1 ID: 0

Read mode : Secure
Utilize accurate stream : Yes
Defeat audio cache : Yes
Make use of C2 pointers : No

Read offset correction : 12
Overread into Lead-In and Lead-Out : No
Fill up missing offset samples with silence : Yes
Delete leading and trailing silent blocks : No
Null samples used in CRC calculations : Yes
Used interface : Installed external ASPI interface
Gap handling : Appended to previous track

Used output format : User Defined Encoder
Selected bitrate : 192 kBit/s
Quality : High
Add ID3 tag : No
Command line compressor : C:\Program Files\Exact Audio Copy\Flac\flac.exe
Additional command line options : -8 -A tukey(0.25) -A gauss(0.1875) -b 4096 -V -T “artist=%a” -T “title=%t” -T “album=%g” -T “date=%y” -T “tracknumber=%n” -T “genre=%m” %s –sector-align

TOC of the extracted CD

Track | Start | Length | Start sector | End sector
———————————————————
1 | 0:00.00 | 0:08.32 | 0 | 631
2 | 0:08.32 | 0:29.60 | 632 | 2866
3 | 0:38.17 | 0:29.60 | 2867 | 5101
4 | 1:08.02 | 0:24.33 | 5102 | 6934
5 | 1:32.35 | 0:27.35 | 6935 | 8994
6 | 1:59.70 | 0:24.30 | 8995 | 10824
7 | 2:24.25 | 0:34.12 | 10825 | 13386
8 | 2:58.37 | 0:39.40 | 13387 | 16351
9 | 3:38.02 | 0:29.40 | 16352 | 18566
10 | 4:07.42 | 0:26.33 | 18567 | 20549
11 | 4:34.00 | 0:29.40 | 20550 | 22764
12 | 5:03.40 | 0:31.65 | 22765 | 25154
13 | 5:35.30 | 0:30.60 | 25155 | 27464
14 | 6:06.15 | 0:29.10 | 27465 | 29649
15 | 6:35.25 | 0:28.10 | 29650 | 31759
16 | 7:03.35 | 0:35.52 | 31760 | 34436
17 | 7:39.12 | 0:31.50 | 34437 | 36811
18 | 8:10.62 | 0:33.15 | 36812 | 39301
19 | 8:44.02 | 0:28.35 | 39302 | 41436
20 | 9:12.37 | 0:32.65 | 41437 | 43901
21 | 9:45.27 | 0:33.68 | 43902 | 46444
22 | 10:19.20 | 0:32.47 | 46445 | 48891
23 | 10:51.67 | 0:35.53 | 48892 | 51569
24 | 11:27.45 | 0:28.37 | 51570 | 53706
25 | 11:56.07 | 0:31.55 | 53707 | 56086
26 | 12:27.62 | 0:24.28 | 56087 | 57914
27 | 12:52.15 | 0:30.02 | 57915 | 60166
28 | 13:22.17 | 0:32.25 | 60167 | 62591
29 | 13:54.42 | 0:27.30 | 62592 | 64646
30 | 14:21.72 | 0:11.30 | 64647 | 65501
31 | 14:33.27 | 0:27.50 | 65502 | 67576
32 | 15:01.02 | 0:32.23 | 67577 | 69999
33 | 15:33.25 | 0:32.47 | 70000 | 72446
34 | 16:05.72 | 0:29.40 | 72447 | 74661
35 | 16:35.37 | 0:33.08 | 74662 | 77144
36 | 17:08.45 | 0:20.42 | 77145 | 78686
37 | 17:29.12 | 0:30.50 | 78687 | 80986
38 | 17:59.62 | 0:31.23 | 80987 | 83334
39 | 18:31.10 | 0:17.35 | 83335 | 84644
40 | 18:48.45 | 0:32.47 | 84645 | 87091
41 | 19:21.17 | 0:29.20 | 87092 | 89286
42 | 19:50.37 | 0:37.55 | 89287 | 92116
43 | 20:28.17 | 0:30.68 | 92117 | 94434
44 | 20:59.10 | 0:24.67 | 94435 | 96301
45 | 21:24.02 | 0:35.73 | 96302 | 98999
46 | 22:00.00 | 0:28.32 | 99000 | 101131
47 | 22:28.32 | 0:33.63 | 101132 | 103669
48 | 23:02.20 | 0:27.45 | 103670 | 105739
49 | 23:29.65 | 0:29.30 | 105740 | 107944
50 | 23:59.20 | 0:30.22 | 107945 | 110216
51 | 24:29.42 | 0:34.40 | 110217 | 112806
52 | 25:04.07 | 0:27.13 | 112807 | 114844
53 | 25:31.20 | 0:30.47 | 114845 | 117141
54 | 26:01.67 | 0:26.10 | 117142 | 119101
55 | 26:28.02 | 0:31.18 | 119102 | 121444
56 | 26:59.20 | 0:30.65 | 121445 | 123759
57 | 27:30.10 | 0:31.15 | 123760 | 126099
58 | 28:01.25 | 0:31.22 | 126100 | 128446
59 | 28:32.47 | 0:28.45 | 128447 | 130591
60 | 29:01.17 | 0:31.60 | 130592 | 132976
61 | 29:33.02 | 0:26.58 | 132977 | 134984
62 | 29:59.60 | 0:32.32 | 134985 | 137416
63 | 30:32.17 | 0:28.73 | 137417 | 139589
64 | 31:01.15 | 0:32.25 | 139590 | 142014
65 | 31:33.40 | 0:31.10 | 142015 | 144349
66 | 32:04.50 | 0:26.65 | 144350 | 146364
67 | 32:31.40 | 0:29.32 | 146365 | 148571
68 | 33:00.72 | 0:31.00 | 148572 | 150896
69 | 33:31.72 | 0:31.40 | 150897 | 153261
70 | 34:03.37 | 0:30.20 | 153262 | 155531
71 | 34:33.57 | 0:26.23 | 155532 | 157504
72 | 35:00.05 | 0:32.47 | 157505 | 159951
73 | 35:32.52 | 0:28.13 | 159952 | 162064
74 | 36:00.65 | 0:28.00 | 162065 | 164164
75 | 36:28.65 | 0:34.57 | 164165 | 166771
76 | 37:03.47 | 0:30.68 | 166772 | 169089
77 | 37:34.40 | 0:30.50 | 169090 | 171389
78 | 38:05.15 | 0:31.30 | 171390 | 173744
79 | 38:36.45 | 0:31.60 | 173745 | 176129
80 | 39:08.30 | 0:33.57 | 176130 | 178661
81 | 39:42.12 | 0:34.63 | 178662 | 181274
82 | 40:17.00 | 0:24.55 | 181275 | 183129
83 | 40:41.55 | 0:32.27 | 183130 | 185556
84 | 41:14.07 | 0:22.45 | 185557 | 187251
85 | 41:36.52 | 0:28.33 | 187252 | 189384
86 | 42:05.10 | 0:37.65 | 189385 | 192224
87 | 42:43.00 | 0:33.60 | 192225 | 194759
88 | 43:16.60 | 0:30.17 | 194760 | 197026
89 | 43:47.02 | 0:31.65 | 197027 | 199416
90 | 44:18.67 | 0:28.30 | 199417 | 201546
91 | 44:47.22 | 0:28.58 | 201547 | 203704
92 | 45:16.05 | 0:30.00 | 203705 | 205954
93 | 45:46.05 | 0:34.07 | 205955 | 208511
94 | 46:20.12 | 0:29.65 | 208512 | 210751
95 | 46:50.02 | 0:33.05 | 210752 | 213231
96 | 47:23.07 | 0:25.48 | 213232 | 215154
97 | 47:48.55 | 0:30.65 | 215155 | 217469
98 | 48:19.45 | 0:31.40 | 217470 | 219834
99 | 48:51.10 | 1:25.10 | 219835 | 226219

Track 1

Filename D:\Various Artists – Short Music for Short People\Fizzy Bangers – Short Music For Short People – 01 – Short Attention Span.wav

Pre-gap length 0:00:02.00

Peak level 98.8 %
Track quality 100.0 %
Test CRC 87EEAD60
Copy CRC 87EEAD60
Accurately ripped (confidence 11) [9CE67C3F]
Copy OK

Track 2

Filename D:\Various Artists – Short Music for Short People\Less Than Jake – Short Music For Short People – 02 – Anchor.wav

Peak level 98.6 %
Track quality 100.0 %
Test CRC 2FB68A1A
Copy CRC 2FB68A1A
Accurately ripped (confidence 11) [BED8362D]
Copy OK

Track 3

Filename D:\Various Artists – Short Music for Short People\Teen Idols – Short Music For Short People – 03 – Ketchup Soup.wav

Peak level 98.8 %
Track quality 100.0 %
Test CRC ED2273B2
Copy CRC ED2273B2
Accurately ripped (confidence 11) [83966142]
Copy OK

Track 4

Filename D:\Various Artists – Short Music for Short People\Terrorgruppe – Short Music For Short People – 04 – All Cops Are Bastards.wav

Peak level 98.8 %
Track quality 100.0 %
Test CRC E1FD7D2E
Copy CRC E1FD7D2E
Accurately ripped (confidence 11) [F8621B9C]
Copy OK

Track 5

Filename D:\Various Artists – Short Music for Short People\Good Riddance – Short Music For Short People – 05 – Overcoming Learned Behavior.wav

Peak level 98.8 %
Track quality 100.0 %
Test CRC F092CDE1
Copy CRC F092CDE1
Accurately ripped (confidence 11) [C6213E8C]
Copy OK

Track 6

Filename D:\Various Artists – Short Music for Short People\Chixdiggit – Short Music For Short People – 06 – Quit Yer Job.wav

Peak level 97.9 %
Track quality 100.0 %
Test CRC 75C8D8C0
Copy CRC 75C8D8C0
Accurately ripped (confidence 11) [B3E8EB0E]
Copy OK

Track 7

Filename D:\Various Artists – Short Music for Short People\Living End – Short Music For Short People – 07 – Ready.wav

Peak level 98.8 %
Track quality 100.0 %
Test CRC 425E2749
Copy CRC 425E2749
Accurately ripped (confidence 11) [AA148A65]
Copy OK

Track 8

Filename D:\Various Artists – Short Music for Short People\Bad Religion – Short Music For Short People – 08 – Out Of Hand.wav

Peak level 98.8 %
Track quality 99.7 %
Test CRC 714CB80A
Copy CRC 714CB80A
Accurately ripped (confidence 11) [D23644A3]
Copy OK

Track 9

Filename D:\Various Artists – Short Music for Short People\Hi-Standard – Short Music For Short People – 09 – Asian Pride.wav

Peak level 95.9 %
Track quality 99.6 %
Test CRC C9854797
Copy CRC C9854797
Accurately ripped (confidence 11) [705EFB36]
Copy OK

Track 10

Filename D:\Various Artists – Short Music for Short People\Aerobitch – Short Music For Short People – 10 – Steamroller Blues.wav

Peak level 96.0 %
Track quality 100.0 %
Test CRC 037B2C2F
Copy CRC 037B2C2F
Accurately ripped (confidence 11) [25181B14]
Copy OK

Track 11

Filename D:\Various Artists – Short Music for Short People\Nerfherder – Short Music For Short People – 11 – Doin’ Laundry.wav

Peak level 98.8 %
Track quality 99.6 %
Test CRC 630944C2
Copy CRC 630944C2
Accurately ripped (confidence 11) [8D777047]
Copy OK

Track 12

Filename D:\Various Artists – Short Music for Short People\Bigwig – Short Music For Short People – 12 – Freegan.wav

Peak level 98.8 %
Track quality 99.6 %
Test CRC B3A68EC4
Copy CRC B3A68EC4
Accurately ripped (confidence 11) [A5BF90C5]
Copy OK

Track 13

Filename D:\Various Artists – Short Music for Short People\Undeclinable Ambuscade – Short Music For Short People – 13 – Not Again.wav

Peak level 98.8 %
Track quality 100.0 %
Test CRC 16DCFB15
Copy CRC 16DCFB15
Accurately ripped (confidence 11) [304A0964]
Copy OK

Track 14

Filename D:\Various Artists – Short Music for Short People\Furry 66 – Short Music For Short People – 14 – Waste Away.wav

Peak level 98.8 %
Track quality 100.0 %
Test CRC D64B30EF
Copy CRC D64B30EF
Accurately ripped (confidence 11) [3373F182]
Copy OK

Track 15

Filename D:\Various Artists – Short Music for Short People\Ataris – Short Music For Short People – 15 – The Radio Still Sucks.wav

Peak level 98.8 %
Track quality 100.0 %
Test CRC B7771487
Copy CRC B7771487
Accurately ripped (confidence 11) [1D017A80]
Copy OK

Track 16

Filename D:\Various Artists – Short Music for Short People\Unwritten Law – Short Music For Short People – 16 – Armageddon Singalong.wav

Peak level 98.8 %
Track quality 100.0 %
Test CRC DADBC1EF
Copy CRC DADBC1EF
Accurately ripped (confidence 11) [1CCD7F83]
Copy OK

Track 17

Filename D:\Various Artists – Short Music for Short People\AFI – Short Music For Short People – 17 – Hears Frozen Soil Sod Once More By The Spring Of Rage, Despair, And Hopelessness.wav

Peak level 98.8 %
Track quality 100.0 %
Test CRC CB266976
Copy CRC CB266976
Accurately ripped (confidence 11) [D568EE97]
Copy OK

Track 18

Filename D:\Various Artists – Short Music for Short People\Dillinger 4 – Short Music For Short People – 18 – Farts Are Jazz To Assholes.wav

Peak level 98.8 %
Track quality 99.6 %
Test CRC 7B162260
Copy CRC 7B162260
Accurately ripped (confidence 11) [9AD8D49E]
Copy OK

Track 19

Filename D:\Various Artists – Short Music for Short People\Spread – Short Music For Short People – 19 – Surf City.wav

Peak level 98.8 %
Track quality 100.0 %
Test CRC CED053FA
Copy CRC CED053FA
Accurately ripped (confidence 11) [9AA416E6]
Copy OK

Track 20

Filename D:\Various Artists – Short Music for Short People\Swingin’ Utters – Short Music For Short People – 20 – Back To You.wav

Peak level 98.8 %
Track quality 99.6 %
Test CRC 21FA06E6
Copy CRC 21FA06E6
Accurately ripped (confidence 11) [A9E0D192]
Copy OK

Track 21

Filename D:\Various Artists – Short Music for Short People\Barfeeders – Short Music For Short People – 21 – Outhouse Of Doom.wav

Peak level 98.8 %
Track quality 100.0 %
Test CRC C1F383C7
Copy CRC C1F383C7
Accurately ripped (confidence 11) [28EFB88B]
Copy OK

Track 22

Filename D:\Various Artists – Short Music for Short People\Citizen Fish – Short Music For Short People – 22 – Alienation.wav

Peak level 98.8 %
Track quality 100.0 %
Test CRC A6BEE555
Copy CRC A6BEE555
Accurately ripped (confidence 11) [19709DAD]
Copy OK

Track 23

Filename D:\Various Artists – Short Music for Short People\Blink 182 – Short Music For Short People – 23 – Family Reunion.wav

Peak level 98.8 %
Track quality 100.0 %
Test CRC 8C3F9FF6
Copy CRC 8C3F9FF6
Accurately ripped (confidence 11) [EBDC2D55]
Copy OK

Track 24

Filename D:\Various Artists – Short Music for Short People\Goober Patrol – Short Music For Short People – 24 – Mirror, Signal, Wheelspin.wav

Peak level 98.8 %
Track quality 100.0 %
Test CRC B3E717AA
Copy CRC B3E717AA
Accurately ripped (confidence 11) [13987F26]
Copy OK

Track 25

Filename D:\Various Artists – Short Music for Short People\Killswitch – Short Music For Short People – 25 – Saturday Night.wav

Peak level 98.8 %
Track quality 100.0 %
Test CRC 8B2F7A95
Copy CRC 8B2F7A95
Accurately ripped (confidence 11) [95856D07]
Copy OK

Track 26

Filename D:\Various Artists – Short Music for Short People\Enemy You – Short Music For Short People – 26 – Bedroom Windows.wav

Peak level 95.5 %
Track quality 100.0 %
Test CRC 2FDD2A58
Copy CRC 2FDD2A58
Accurately ripped (confidence 11) [9FEB7229]
Copy OK

Track 27

Filename D:\Various Artists – Short Music for Short People\No Use For A Name – Short Music For Short People – 27 – Sara Fisher.wav

Peak level 98.8 %
Track quality 100.0 %
Test CRC F4DB8499
Copy CRC F4DB8499
Accurately ripped (confidence 11) [FBD92717]
Copy OK

Track 28

Filename D:\Various Artists – Short Music for Short People\Green Day – Short Music For Short People – 28 – The Ballad Of Wilhelm Fink.wav

Peak level 98.8 %
Track quality 100.0 %
Test CRC C3268486
Copy CRC C3268486
Accurately ripped (confidence 11) [E2EBB800]
Copy OK

Track 29

Filename D:\Various Artists – Short Music for Short People\Consumed – Short Music For Short People – 29 – Delraiser Part III – Del On Earth.wav

Peak level 98.2 %
Track quality 100.0 %
Test CRC 1DEEB145
Copy CRC 1DEEB145
Accurately ripped (confidence 11) [4D76B5E3]
Copy OK

Track 30

Filename D:\Various Artists – Short Music for Short People\Mr. T Experience – Short Music For Short People – 30 – Told You Once.wav

Peak level 98.8 %
Track quality 100.0 %
Test CRC 235D9A41
Copy CRC 235D9A41
Accurately ripped (confidence 11) [ED205462]
Copy OK

Track 31

Filename D:\Various Artists – Short Music for Short People\Lagwagon – Short Music For Short People – 31 – Randal Gets Drunk.wav

Peak level 98.8 %
Track quality 100.0 %
Test CRC D71BC1ED
Copy CRC D71BC1ED
Accurately ripped (confidence 11) [4DDB4515]
Copy OK

Track 32

Filename D:\Various Artists – Short Music for Short People\Gwar – Short Music For Short People – 32 – Fishfuck.wav

Peak level 98.8 %
Track quality 100.0 %
Test CRC 5E9FA36D
Copy CRC 5E9FA36D
Accurately ripped (confidence 11) [CA1665D5]
Copy OK

Track 33

Filename D:\Various Artists – Short Music for Short People\Dickies – Short Music For Short People – 33 – Howdy Doody In The Woodshed.wav

Peak level 98.8 %
Track quality 100.0 %
Test CRC 3671770E
Copy CRC 3671770E
Accurately ripped (confidence 11) [3B7E2F37]
Copy OK

Track 34

Filename D:\Various Artists – Short Music for Short People\Samiam – Short Music For Short People – 34 – Long Enough To Forget You.wav

Peak level 96.1 %
Track quality 99.6 %
Test CRC 3DF87E11
Copy CRC 3DF87E11
Accurately ripped (confidence 11) [FA40C3C5]
Copy OK

Track 35

Filename D:\Various Artists – Short Music for Short People\Dog Piss – Short Music For Short People – 35 – Erik Sandin’s Stand-In.wav

Peak level 93.4 %
Track quality 100.0 %
Test CRC EC5D117A
Copy CRC EC5D117A
Accurately ripped (confidence 11) [F12DD67C]
Copy OK

Track 36

Filename D:\Various Artists – Short Music for Short People\59 Times The Pain – Short Music For Short People – 36 – We Want The Kids.wav

Peak level 96.1 %
Track quality 100.0 %
Test CRC 3EEEE7DF
Copy CRC 3EEEE7DF
Accurately ripped (confidence 11) [8C1B4DDA]
Copy OK

Track 37

Filename D:\Various Artists – Short Music for Short People\Bracket – Short Music For Short People – 37 – Warren’s Song (Part 6).wav

Peak level 98.8 %
Track quality 100.0 %
Test CRC 36F4AE19
Copy CRC 36F4AE19
Accurately ripped (confidence 11) [3E3AB1DC]
Copy OK

Track 38

Filename D:\Various Artists – Short Music for Short People\No Means No – Short Music For Short People – 38 – No Fgcnuik.wav

Peak level 98.8 %
Track quality 100.0 %
Test CRC 2A2706CB
Copy CRC 2A2706CB
Accurately ripped (confidence 11) [D22291F6]
Copy OK

Track 39

Filename D:\Various Artists – Short Music for Short People\Descendents – Short Music For Short People – 39 – I Like Food.wav

Peak level 98.8 %
Track quality 100.0 %
Test CRC E29477B7
Copy CRC E29477B7
Accurately ripped (confidence 11) [835FAED5]
Copy OK

Track 40

Filename D:\Various Artists – Short Music for Short People\Dance Hall Crashers – Short Music For Short People – 40 – Triple Track.wav

Peak level 98.8 %
Track quality 100.0 %
Test CRC 915A0417
Copy CRC 915A0417
Accurately ripped (confidence 11) [646B72A3]
Copy OK

Track 41

Filename D:\Various Artists – Short Music for Short People\Guttermouth – Short Music For Short People – 41 – Don Camero Lost His Mind.wav

Peak level 97.5 %
Track quality 100.0 %
Test CRC 9370AA03
Copy CRC 9370AA03
Accurately ripped (confidence 11) [8D2957CA]
Copy OK

Track 42

Filename D:\Various Artists – Short Music for Short People\Limp – Short Music For Short People – 42 – X-99.wav

Peak level 96.6 %
Track quality 100.0 %
Test CRC B5D9AC65
Copy CRC B5D9AC65
Accurately ripped (confidence 11) [B889A893]
Copy OK

Track 43

Filename D:\Various Artists – Short Music for Short People\Jughead’s Revenge – Short Music For Short People – 43 – Faust.wav

Peak level 98.8 %
Track quality 100.0 %
Test CRC 9ACFB849
Copy CRC 9ACFB849
Accurately ripped (confidence 11) [CB730AEB]
Copy OK

Track 44

Filename D:\Various Artists – Short Music for Short People\Circle Jerks – Short Music For Short People – 44 – Deny Everything.wav

Peak level 98.4 %
Track quality 99.5 %
Test CRC 756C1547
Copy CRC 756C1547
Accurately ripped (confidence 11) [CC59212B]
Copy OK

Track 45

Filename D:\Various Artists – Short Music for Short People\Offspring – Short Music For Short People – 45 – Hand Grenades.wav

Peak level 98.8 %
Track quality 100.0 %
Test CRC C82CDBCB
Copy CRC C82CDBCB
Accurately ripped (confidence 11) [C664736B]
Copy OK

Track 46

Filename D:\Various Artists – Short Music for Short People\Mad Caddies – Short Music For Short People – 46 – Mike Booted Our First Song, So We Recorded This One Instead.wav

Peak level 98.8 %
Track quality 100.0 %
Test CRC FF418738
Copy CRC FF418738
Accurately ripped (confidence 11) [9A8DBCF5]
Copy OK

Track 47

Filename D:\Various Artists – Short Music for Short People\Criminals – Short Music For Short People – 47 – Union Yes.wav

Peak level 98.6 %
Track quality 100.0 %
Test CRC A2E853B3
Copy CRC A2E853B3
Accurately ripped (confidence 11) [2F22355B]
Copy OK

Track 48

Filename D:\Various Artists – Short Music for Short People\Screeching Weasel – Short Music For Short People – 48 – Dirty Needles.wav

Peak level 97.7 %
Track quality 100.0 %
Test CRC 9E7C598C
Copy CRC 9E7C598C
Accurately ripped (confidence 11) [0977713B]
Copy OK

Track 49

Filename D:\Various Artists – Short Music for Short People\One Man Army – Short Music For Short People – 49 – 300 Miles.wav

Peak level 98.8 %
Track quality 100.0 %
Test CRC 5409D175
Copy CRC 5409D175
Accurately ripped (confidence 11) [0E58E62C]
Copy OK

Track 50

Filename D:\Various Artists – Short Music for Short People\Strung Out – Short Music For Short People – 50 – Klawsterfobia.wav

Peak level 98.7 %
Track quality 100.0 %
Test CRC E2A0DC0C
Copy CRC E2A0DC0C
Accurately ripped (confidence 11) [BF1F747F]
Copy OK

Track 51

Filename D:\Various Artists – Short Music for Short People\Youth Brigade – Short Music For Short People – 51 – You Don’t Know Shit.wav

Peak level 98.8 %
Track quality 99.6 %
Test CRC 6C2863D4
Copy CRC 6C2863D4
Accurately ripped (confidence 11) [C4D5C0E7]
Copy OK

Track 52

Filename D:\Various Artists – Short Music for Short People\Groovie Ghoulies – Short Music For Short People – 52 – Doin’ Fine.wav

Peak level 98.8 %
Track quality 100.0 %
Test CRC 5D2C9776
Copy CRC 5D2C9776
Accurately ripped (confidence 11) [49DC0138]
Copy OK

Track 53

Filename D:\Various Artists – Short Music for Short People\Tilt – Short Music For Short People – 53 – John For The Working Man.wav

Peak level 98.8 %
Track quality 100.0 %
Test CRC 7FCC8E3C
Copy CRC 7FCC8E3C
Accurately ripped (confidence 11) [023A3D90]
Copy OK

Track 54

Filename D:\Various Artists – Short Music for Short People\Spazz – Short Music For Short People – 54 – A Prayer For The Complete And Utter Eradication Of All Generic Pop-Punk.wav

Peak level 97.1 %
Track quality 100.0 %
Test CRC D2E3207C
Copy CRC D2E3207C
Accurately ripped (confidence 11) [C003272B]
Copy OK

Track 55

Filename D:\Various Artists – Short Music for Short People\Damned – Short Music For Short People – 55 – It’s A Real Time Thing.wav

Peak level 98.8 %
Track quality 100.0 %
Test CRC 3907D674
Copy CRC 3907D674
Accurately ripped (confidence 11) [1A0A0BAB]
Copy OK

Track 56

Filename D:\Various Artists – Short Music for Short People\88 Fingers Louie – Short Music For Short People – 56 – All My Friends Are Popular.wav

Peak level 98.8 %
Track quality 99.6 %
Test CRC EAB49387
Copy CRC EAB49387
Accurately ripped (confidence 11) [09BE473E]
Copy OK

Track 57

Filename D:\Various Artists – Short Music for Short People\D.O.A. – Short Music For Short People – 57 – I Hate Punk Rock.wav

Peak level 98.8 %
Track quality 99.6 %
Test CRC F3AC0AA0
Copy CRC F3AC0AA0
Accurately ripped (confidence 11) [C3F911F0]
Copy OK

Track 58

Filename D:\Various Artists – Short Music for Short People\Pulley – Short Music For Short People – 58 – Fun.wav

Peak level 98.8 %
Track quality 100.0 %
Test CRC F7F2DFFF
Copy CRC F7F2DFFF
Accurately ripped (confidence 11) [AAAEDA08]
Copy OK

Track 59

Filename D:\Various Artists – Short Music for Short People\Vandals – Short Music For Short People – 59 – To All The Kids.wav

Peak level 98.8 %
Track quality 100.0 %
Test CRC 32315638
Copy CRC 32315638
Accurately ripped (confidence 11) [A2134CA3]
Copy OK

Track 60

Filename D:\Various Artists – Short Music for Short People\Pennywise – Short Music For Short People – 60 – 30 Seconds Till The End Of The World.wav

Peak level 98.8 %
Track quality 100.0 %
Test CRC 78365DD1
Copy CRC 78365DD1
Accurately ripped (confidence 11) [4E8BA63B]
Copy OK

Track 61

Filename D:\Various Artists – Short Music for Short People\No Fun At All – Short Music For Short People – 61 – Get A Grip.wav

Peak level 98.8 %
Track quality 100.0 %
Test CRC 4D9FE3E6
Copy CRC 4D9FE3E6
Accurately ripped (confidence 11) [D3557052]
Copy OK

Track 62

Filename D:\Various Artists – Short Music for Short People\Sick Of It All – Short Music For Short People – 62 – Blatty (Human Egg).wav

Peak level 98.8 %
Track quality 100.0 %
Test CRC 2FDFD090
Copy CRC 2FDFD090
Accurately ripped (confidence 11) [2ADFF0C3]
Copy OK

Track 63

Filename D:\Various Artists – Short Music for Short People\All – Short Music For Short People – 63 – I Got None.wav

Peak level 98.8 %
Track quality 100.0 %
Test CRC 9E63023B
Copy CRC 9E63023B
Accurately ripped (confidence 11) [F23071BB]
Copy OK

Track 64

Filename D:\Various Artists – Short Music for Short People\NOFX – Short Music For Short People – 64 – See Her Pee.wav

Peak level 98.8 %
Track quality 100.0 %
Test CRC DCBF49DD
Copy CRC DCBF49DD
Accurately ripped (confidence 10) [623D221E]
Copy OK

Track 65

Filename D:\Various Artists – Short Music for Short People\7 Seconds – Short Music For Short People – 65 – F.O.F.O.D..wav

Peak level 98.8 %
Track quality 100.0 %
Test CRC 4A824E70
Copy CRC 4A824E70
Accurately ripped (confidence 10) [EAD6301B]
Copy OK

Track 66

Filename D:\Various Artists – Short Music for Short People\Rancid – Short Music For Short People – 66 – Blacklisted.wav

Peak level 98.8 %
Track quality 100.0 %
Test CRC A4ABBFD6
Copy CRC A4ABBFD6
Accurately ripped (confidence 11) [6FC55BEF]
Copy OK

Track 67

Filename D:\Various Artists – Short Music for Short People\Diesel Boy – Short Music For Short People – 67 – Chandaliers & Souvenirs.wav

Peak level 98.8 %
Track quality 100.0 %
Test CRC 7E51826E
Copy CRC 7E51826E
Accurately ripped (confidence 11) [C1CB4DEB]
Copy OK

Track 68

Filename D:\Various Artists – Short Music for Short People\Adrenalin O.D. – Short Music For Short People – 68 – Your Kung Fu Is Old… And Now You Must Die!.wav

Peak level 98.8 %
Track quality 100.0 %
Test CRC 2C95B5AD
Copy CRC 2C95B5AD
Accurately ripped (confidence 11) [07BD7AC9]
Copy OK

Track 69

Filename D:\Various Artists – Short Music for Short People\Frenzel Rhomb – Short Music For Short People – 69 – My Pants Keep Falling Down.wav

Peak level 97.6 %
Track quality 99.6 %
Test CRC 160E4871
Copy CRC 160E4871
Accurately ripped (confidence 11) [16A417DA]
Copy OK

Track 70

Filename D:\Various Artists – Short Music for Short People\Queers – Short Music For Short People – 70 – I Hate Your Fucking Guts.wav

Peak level 98.8 %
Track quality 100.0 %
Test CRC C9524F72
Copy CRC C9524F72
Accurately ripped (confidence 11) [63236E47]
Copy OK

Track 71

Filename D:\Various Artists – Short Music for Short People\D.I. – Short Music For Short People – 71 – Comin’ To You Town.wav

Peak level 98.8 %
Track quality 100.0 %
Test CRC F4D1A01F
Copy CRC F4D1A01F
Accurately ripped (confidence 11) [98D1939E]
Copy OK

Track 72

Filename D:\Various Artists – Short Music for Short People\Black Flag – Short Music For Short People – 72 – Spray Paint.wav

Peak level 98.8 %
Track quality 100.0 %
Test CRC E3F38C1E
Copy CRC E3F38C1E
Accurately ripped (confidence 11) [6C9CEB3F]
Copy OK

Track 73

Filename D:\Various Artists – Short Music for Short People\White Flag – Short Music For Short People – 73 – Rage Against The Machine Are Capitalist Phonies.wav

Peak level 97.8 %
Track quality 100.0 %
Test CRC 7E4E2B7F
Copy CRC 7E4E2B7F
Accurately ripped (confidence 11) [340892B1]
Copy OK

Track 74

Filename D:\Various Artists – Short Music for Short People\Anti-Flag – Short Music For Short People – 74 – Bring It To An End.wav

Peak level 98.8 %
Track quality 100.0 %
Test CRC 92416728
Copy CRC 92416728
Accurately ripped (confidence 11) [142D24F1]
Copy OK

Track 75

Filename D:\Various Artists – Short Music for Short People\Avail – Short Music For Short People – 75 – Not A Happy Man.wav

Peak level 98.8 %
Track quality 100.0 %
Test CRC 815F16DA
Copy CRC 815F16DA
Accurately ripped (confidence 11) [F848E4DC]
Copy OK

Track 76

Filename D:\Various Artists – Short Music for Short People\Real McKenzies – Short Music For Short People – 76 – Old Mrs. Cuddy.wav

Peak level 98.8 %
Track quality 100.0 %
Test CRC 58AF54E6
Copy CRC 58AF54E6
Accurately ripped (confidence 11) [B21543ED]
Copy OK

Track 77

Filename D:\Various Artists – Short Music for Short People\Agnostic Front – Short Music For Short People – 77 – Traitor.wav

Peak level 98.4 %
Track quality 100.0 %
Test CRC 1C00A509
Copy CRC 1C00A509
Accurately ripped (confidence 11) [04A361E2]
Copy OK

Track 78

Filename D:\Various Artists – Short Music for Short People\Down By Law – Short Music For Short People – 78 – Life Rules 101.wav

Peak level 98.8 %
Track quality 100.0 %
Test CRC E0CBFB76
Copy CRC E0CBFB76
Accurately ripped (confidence 10) [D3093F96]
Copy OK

Track 79

Filename D:\Various Artists – Short Music for Short People\Radio Days – Short Music For Short People – 79 – Wake Up.wav

Peak level 97.5 %
Track quality 100.0 %
Test CRC A67A407C
Copy CRC A67A407C
Accurately ripped (confidence 11) [D3FD229D]
Copy OK

Track 80

Filename D:\Various Artists – Short Music for Short People\Useless ID – Short Music For Short People – 80 – Too Bad You Don’t Get It.wav

Peak level 98.8 %
Track quality 100.0 %
Test CRC 672190D4
Copy CRC 672190D4
Accurately ripped (confidence 11) [5907AB26]
Copy OK

Track 81

Filename D:\Various Artists – Short Music for Short People\Poison Idea – Short Music For Short People – 81 – Humanity.wav

Peak level 98.8 %
Track quality 100.0 %
Test CRC 195E5012
Copy CRC 195E5012
Accurately ripped (confidence 11) [B56C572A]
Copy OK

Track 82

Filename D:\Various Artists – Short Music for Short People\Men O’ Steel – Short Music For Short People – 82 – In Your Head.wav

Peak level 97.7 %
Track quality 100.0 %
Test CRC DCB077AD
Copy CRC DCB077AD
Accurately ripped (confidence 11) [9EBC6E34]
Copy OK

Track 83

Filename D:\Various Artists – Short Music for Short People\Subhumans – Short Music For Short People – 83 – Supermarket Forces.wav

Peak level 98.8 %
Track quality 100.0 %
Test CRC 8C7982AB
Copy CRC 8C7982AB
Accurately ripped (confidence 11) [73F8EC19]
Copy OK

Track 84

Filename D:\Various Artists – Short Music for Short People\Black Wild – Short Music For Short People – 84 – Tribute To The Mammal.wav

Peak level 98.8 %
Track quality 100.0 %
Test CRC 2D2DF6DF
Copy CRC 2D2DF6DF
Accurately ripped (confidence 11) [8B665D38]
Copy OK

Track 85

Filename D:\Various Artists – Short Music for Short People\Lunachicks – Short Music For Short People – 85 – Pretty Houses.wav

Peak level 98.8 %
Track quality 100.0 %
Test CRC 5FF55792
Copy CRC 5FF55792
Accurately ripped (confidence 11) [D8BA0E76]
Copy OK

Track 86

Filename D:\Various Artists – Short Music for Short People\Dwarves – Short Music For Short People – 86 – The Band That Wouldn’t Die.wav

Peak level 98.8 %
Track quality 99.7 %
Test CRC 1BEDA456
Copy CRC 1BEDA456
Accurately ripped (confidence 11) [DE305318]
Copy OK

Track 87

Filename D:\Various Artists – Short Music for Short People\Bouncing Souls – Short Music For Short People – 87 – Like A Fish In Water.wav

Peak level 98.8 %
Track quality 100.0 %
Test CRC 4959A746
Copy CRC 4959A746
Accurately ripped (confidence 11) [84DB6019]
Copy OK

Track 88

Filename D:\Various Artists – Short Music for Short People\Trigger Happy – Short Music For Short People – 88 – Turn It Up.wav

Peak level 98.8 %
Track quality 99.6 %
Test CRC 54F3ED6C
Copy CRC 54F3ED6C
Accurately ripped (confidence 11) [F5C80F0E]
Copy OK

Track 89

Filename D:\Various Artists – Short Music for Short People\One Hit Wonder – Short Music For Short People – 89 – Madam’s Apple.wav

Peak level 98.8 %
Track quality 99.6 %
Test CRC AAC3787C
Copy CRC AAC3787C
Accurately ripped (confidence 11) [933BD1BA]
Copy OK

Track 90

Filename D:\Various Artists – Short Music for Short People\Hot Box – Short Music For Short People – 90 – Staggering.wav

Peak level 98.8 %
Track quality 100.0 %
Test CRC 32FF1ABA
Copy CRC 32FF1ABA
Accurately ripped (confidence 11) [C141D221]
Copy OK

Track 91

Filename D:\Various Artists – Short Music for Short People\20 Percent – Short Music For Short People – 91 – DMV.wav

Peak level 98.1 %
Track quality 100.0 %
Test CRC F1D45A95
Copy CRC F1D45A95
Accurately ripped (confidence 11) [E7B1A8D5]
Copy OK

Track 92

Filename D:\Various Artists – Short Music for Short People\Snuff – Short Music For Short People – 92 – Big Fat Skinhead.wav

Peak level 98.8 %
Track quality 100.0 %
Test CRC BE64282B
Copy CRC BE64282B
Accurately ripped (confidence 11) [A40FC13A]
Copy OK

Track 93

Filename D:\Various Artists – Short Music for Short People\Muffs – Short Music For Short People – 93 – Pimmel.wav

Peak level 76.2 %
Track quality 100.0 %
Test CRC 5BCDD31D
Copy CRC 5BCDD31D
Accurately ripped (confidence 11) [5EBFFAC2]
Copy OK

Track 94

Filename D:\Various Artists – Short Music for Short People\H2O – Short Music For Short People – 94 – Mr. Brett, Please Put Down Your Gun.wav

Peak level 98.8 %
Track quality 99.6 %
Test CRC BEA6A7C6
Copy CRC BEA6A7C6
Accurately ripped (confidence 11) [E00DDC45]
Copy OK

Track 95

Filename D:\Various Artists – Short Music for Short People\Bodyjar – Short Music For Short People – 95 – Wake Up.wav

Peak level 98.8 %
Track quality 100.0 %
Test CRC 3CA49610
Copy CRC 3CA49610
Accurately ripped (confidence 10) [66C5620E]
Copy OK

Track 96

Filename D:\Various Artists – Short Music for Short People\Nicotine – Short Music For Short People – 96 – Eyez.wav

Peak level 98.8 %
Track quality 100.0 %
Test CRC B021C6B5
Copy CRC B021C6B5
Accurately ripped (confidence 11) [1F066050]
Copy OK

Track 97

Filename D:\Various Artists – Short Music for Short People\Satanic Surfers – Short Music For Short People – 97 – Another Stale Cartoon.wav

Peak level 98.8 %
Track quality 99.6 %
Test CRC 5B4E219C
Copy CRC 5B4E219C
Accurately ripped (confidence 11) [F38A8AA5]
Copy OK

Track 98

Filename D:\Various Artists – Short Music for Short People\Ten Foot Pole – Short Music For Short People – 98 – I Don’t Mind.wav

Peak level 98.8 %
Track quality 99.6 %
Test CRC 8CD84ADE
Copy CRC 8CD84ADE
Accurately ripped (confidence 11) [065014F8]
Copy OK

Track 99

Filename D:\Various Artists – Short Music for Short People\Caustic Soda – Short Music For Short People – 99 – Misfits , Wizo , Welcome To Dumpsville, Population- You , NY Ranger , The Count.wav

Peak level 98.8 %
Track quality 100.0 %
Test CRC F89D7BB8
Copy CRC F89D7BB8
Accurately ripped (confidence 10) [1AEA309F]
Copy OK

All tracks accurately ripped

No errors occurred

End of status report

REM GENRE “Punk Rock”
REM DATE 2000
REM DISCID 5A0BC863
REM COMMENT “ExactAudioCopy v0.99pb4”
PERFORMER “Various”
TITLE “Short Music For Short People”
FILE “Fizzy Bangers – Short Music For Short People – 01 – Short Attention Span.wav” WAVE
TRACK 01 AUDIO
TITLE “Short Attention Span”
PERFORMER “Fizzy Bangers”
INDEX 01 00:00:00
FILE “Less Than Jake – Short Music For Short People – 02 – Anchor.wav” WAVE
TRACK 02 AUDIO
TITLE “Anchor”
PERFORMER “Less Than Jake”
INDEX 01 00:00:00
FILE “Teen Idols – Short Music For Short People – 03 – Ketchup Soup.wav” WAVE
TRACK 03 AUDIO
TITLE “Ketchup Soup”
PERFORMER “Teen Idols”
INDEX 01 00:00:00
FILE “Terrorgruppe – Short Music For Short People – 04 – All Cops Are Bastards.wav” WAVE
TRACK 04 AUDIO
TITLE “All Cops Are Bastards”
PERFORMER “Terrorgruppe”
INDEX 01 00:00:00
FILE “Good Riddance – Short Music For Short People – 05 – Overcoming Learned Behavior.wav” WAVE
TRACK 05 AUDIO
TITLE “Overcoming Learned Behavior”
PERFORMER “Good Riddance”
INDEX 01 00:00:00
FILE “Chixdiggit – Short Music For Short People – 06 – Quit Yer Job.wav” WAVE
TRACK 06 AUDIO
TITLE “Quit Yer Job”
PERFORMER “Chixdiggit”
INDEX 01 00:00:00
FILE “Living End – Short Music For Short People – 07 – Ready.wav” WAVE
TRACK 07 AUDIO
TITLE “Ready”
PERFORMER “Living End”
INDEX 01 00:00:00
FILE “Bad Religion – Short Music For Short People – 08 – Out Of Hand.wav” WAVE
TRACK 08 AUDIO
TITLE “Out Of Hand”
PERFORMER “Bad Religion”
INDEX 01 00:00:00
FILE “Hi-Standard – Short Music For Short People – 09 – Asian Pride.wav” WAVE
TRACK 09 AUDIO
TITLE “Asian Pride”
PERFORMER “Hi-Standard”
INDEX 01 00:00:00
FILE “Aerobitch – Short Music For Short People – 10 – Steamroller Blues.wav” WAVE
TRACK 10 AUDIO
TITLE “Steamroller Blues”
PERFORMER “Aerobitch”
INDEX 01 00:00:00
FILE “Nerfherder – Short Music For Short People – 11 – Doin’ Laundry.wav” WAVE
TRACK 11 AUDIO
TITLE “Doin’ Laundry”
PERFORMER “Nerfherder”
INDEX 01 00:00:00
FILE “Bigwig – Short Music For Short People – 12 – Freegan.wav” WAVE
TRACK 12 AUDIO
TITLE “Freegan”
PERFORMER “Bigwig”
INDEX 01 00:00:00
FILE “Undeclinable Ambuscade – Short Music For Short People – 13 – Not Again.wav” WAVE
TRACK 13 AUDIO
TITLE “Not Again”
PERFORMER “Undeclinable Ambuscade”
INDEX 01 00:00:00
FILE “Furry 66 – Short Music For Short People – 14 – Waste Away.wav” WAVE
TRACK 14 AUDIO
TITLE “Waste Away”
PERFORMER “Furry 66”
INDEX 01 00:00:00
FILE “Ataris – Short Music For Short People – 15 – The Radio Still Sucks.wav” WAVE
TRACK 15 AUDIO
TITLE “The Radio Still Sucks”
PERFORMER “Ataris”
INDEX 01 00:00:00
FILE “Unwritten Law – Short Music For Short People – 16 – Armageddon Singalong.wav” WAVE
TRACK 16 AUDIO
TITLE “Armageddon Singalong”
PERFORMER “Unwritten Law”
INDEX 01 00:00:00
FILE “AFI – Short Music For Short People – 17 – Hears Frozen Soil Sod Once More By The Spring Of Rage, Despair, And Hopelessness.wav” WAVE
TRACK 17 AUDIO
TITLE “Hears Frozen Soil Sod Once More By The Spring Of Rage, Despair, And Hopelessness”
PERFORMER “AFI”
INDEX 01 00:00:00
FILE “Dillinger 4 – Short Music For Short People – 18 – Farts Are Jazz To Assholes.wav” WAVE
TRACK 18 AUDIO
TITLE “Farts Are Jazz To Assholes”
PERFORMER “Dillinger 4”
INDEX 01 00:00:00
FILE “Spread – Short Music For Short People – 19 – Surf City.wav” WAVE
TRACK 19 AUDIO
TITLE “Surf City”
PERFORMER “Spread”
INDEX 01 00:00:00
FILE “Swingin’ Utters – Short Music For Short People – 20 – Back To You.wav” WAVE
TRACK 20 AUDIO
TITLE “Back To You”
PERFORMER “Swingin’ Utters”
INDEX 01 00:00:00
FILE “Barfeeders – Short Music For Short People – 21 – Outhouse Of Doom.wav” WAVE
TRACK 21 AUDIO
TITLE “Outhouse Of Doom”
PERFORMER “Barfeeders”
INDEX 01 00:00:00
FILE “Citizen Fish – Short Music For Short People – 22 – Alienation.wav” WAVE
TRACK 22 AUDIO
TITLE “Alienation”
PERFORMER “Citizen Fish”
INDEX 01 00:00:00
FILE “Blink 182 – Short Music For Short People – 23 – Family Reunion.wav” WAVE
TRACK 23 AUDIO
TITLE “Family Reunion”
PERFORMER “Blink 182”
INDEX 01 00:00:00
FILE “Goober Patrol – Short Music For Short People – 24 – Mirror, Signal, Wheelspin.wav” WAVE
TRACK 24 AUDIO
TITLE “Mirror, Signal, Wheelspin”
PERFORMER “Goober Patrol”
INDEX 01 00:00:00
FILE “Killswitch – Short Music For Short People – 25 – Saturday Night.wav” WAVE
TRACK 25 AUDIO
TITLE “Saturday Night”
PERFORMER “Killswitch”
INDEX 01 00:00:00
FILE “Enemy You – Short Music For Short People – 26 – Bedroom Windows.wav” WAVE
TRACK 26 AUDIO
TITLE “Bedroom Windows”
PERFORMER “Enemy You”
INDEX 01 00:00:00
FILE “No Use For A Name – Short Music For Short People – 27 – Sara Fisher.wav” WAVE
TRACK 27 AUDIO
TITLE “Sara Fisher”
PERFORMER “No Use For A Name”
INDEX 01 00:00:00
FILE “Green Day – Short Music For Short People – 28 – The Ballad Of Wilhelm Fink.wav” WAVE
TRACK 28 AUDIO
TITLE “The Ballad Of Wilhelm Fink”
PERFORMER “Green Day”
INDEX 01 00:00:00
FILE “Consumed – Short Music For Short People – 29 – Delraiser Part III – Del On Earth.wav” WAVE
TRACK 29 AUDIO
TITLE “Delraiser Part III – Del On Earth”
PERFORMER “Consumed”
INDEX 01 00:00:00
FILE “Mr. T Experience – Short Music For Short People – 30 – Told You Once.wav” WAVE
TRACK 30 AUDIO
TITLE “Told You Once”
PERFORMER “Mr. T Experience”
INDEX 01 00:00:00
FILE “Lagwagon – Short Music For Short People – 31 – Randal Gets Drunk.wav” WAVE
TRACK 31 AUDIO
TITLE “Randal Gets Drunk”
PERFORMER “Lagwagon”
INDEX 01 00:00:00
FILE “Gwar – Short Music For Short People – 32 – Fishfuck.wav” WAVE
TRACK 32 AUDIO
TITLE “Fishfuck”
PERFORMER “Gwar”
INDEX 01 00:00:00
FILE “Dickies – Short Music For Short People – 33 – Howdy Doody In The Woodshed.wav” WAVE
TRACK 33 AUDIO
TITLE “Howdy Doody In The Woodshed”
PERFORMER “Dickies”
INDEX 01 00:00:00
FILE “Samiam – Short Music For Short People – 34 – Long Enough To Forget You.wav” WAVE
TRACK 34 AUDIO
TITLE “Long Enough To Forget You”
PERFORMER “Samiam”
INDEX 01 00:00:00
FILE “Dog Piss – Short Music For Short People – 35 – Erik Sandin’s Stand-In.wav” WAVE
TRACK 35 AUDIO
TITLE “Erik Sandin’s Stand-In”
PERFORMER “Dog Piss”
INDEX 01 00:00:00
FILE “59 Times The Pain – Short Music For Short People – 36 – We Want The Kids.wav” WAVE
TRACK 36 AUDIO
TITLE “We Want The Kids”
PERFORMER “59 Times The Pain”
INDEX 01 00:00:00
FILE “Bracket – Short Music For Short People – 37 – Warren’s Song (Part 6).wav” WAVE
TRACK 37 AUDIO
TITLE “Warren’s Song (Part 6)”
PERFORMER “Bracket”
INDEX 01 00:00:00
FILE “No Means No – Short Music For Short People – 38 – No Fgcnuik.wav” WAVE
TRACK 38 AUDIO
TITLE “No Fgcnuik”
PERFORMER “No Means No”
INDEX 01 00:00:00
FILE “Descendents – Short Music For Short People – 39 – I Like Food.wav” WAVE
TRACK 39 AUDIO
TITLE “I Like Food”
PERFORMER “Descendents”
INDEX 01 00:00:00
FILE “Dance Hall Crashers – Short Music For Short People – 40 – Triple Track.wav” WAVE
TRACK 40 AUDIO
TITLE “Triple Track”
PERFORMER “Dance Hall Crashers”
INDEX 01 00:00:00
FILE “Guttermouth – Short Music For Short People – 41 – Don Camero Lost His Mind.wav” WAVE
TRACK 41 AUDIO
TITLE “Don Camero Lost His Mind”
PERFORMER “Guttermouth”
INDEX 01 00:00:00
FILE “Limp – Short Music For Short People – 42 – X-99.wav” WAVE
TRACK 42 AUDIO
TITLE “X-99”
PERFORMER “Limp”
INDEX 01 00:00:00
FILE “Jughead’s Revenge – Short Music For Short People – 43 – Faust.wav” WAVE
TRACK 43 AUDIO
TITLE “Faust”
PERFORMER “Jughead’s Revenge”
INDEX 01 00:00:00
FILE “Circle Jerks – Short Music For Short People – 44 – Deny Everything.wav” WAVE
TRACK 44 AUDIO
TITLE “Deny Everything”
PERFORMER “Circle Jerks”
INDEX 01 00:00:00
FILE “Offspring – Short Music For Short People – 45 – Hand Grenades.wav” WAVE
TRACK 45 AUDIO
TITLE “Hand Grenades”
PERFORMER “Offspring”
INDEX 01 00:00:00
FILE “Mad Caddies – Short Music For Short People – 46 – Mike Booted Our First Song, So We Recorded This One Instead.wav” WAVE
TRACK 46 AUDIO
TITLE “Mike Booted Our First Song, So We Recorded This One Instead”
PERFORMER “Mad Caddies”
INDEX 01 00:00:00
FILE “Criminals – Short Music For Short People – 47 – Union Yes.wav” WAVE
TRACK 47 AUDIO
TITLE “Union Yes”
PERFORMER “Criminals”
INDEX 01 00:00:00
FILE “Screeching Weasel – Short Music For Short People – 48 – Dirty Needles.wav” WAVE
TRACK 48 AUDIO
TITLE “Dirty Needles”
PERFORMER “Screeching Weasel”
INDEX 01 00:00:00
FILE “One Man Army – Short Music For Short People – 49 – 300 Miles.wav” WAVE
TRACK 49 AUDIO
TITLE “300 Miles”
PERFORMER “One Man Army”
INDEX 01 00:00:00
FILE “Strung Out – Short Music For Short People – 50 – Klawsterfobia.wav” WAVE
TRACK 50 AUDIO
TITLE “Klawsterfobia”
PERFORMER “Strung Out”
INDEX 01 00:00:00
FILE “Youth Brigade – Short Music For Short People – 51 – You Don’t Know Shit.wav” WAVE
TRACK 51 AUDIO
TITLE “You Don’t Know Shit”
PERFORMER “Youth Brigade”
INDEX 01 00:00:00
FILE “Groovie Ghoulies – Short Music For Short People – 52 – Doin’ Fine.wav” WAVE
TRACK 52 AUDIO
TITLE “Doin’ Fine”
PERFORMER “Groovie Ghoulies”
INDEX 01 00:00:00
FILE “Tilt – Short Music For Short People – 53 – John For The Working Man.wav” WAVE
TRACK 53 AUDIO
TITLE “John For The Working Man”
PERFORMER “Tilt”
INDEX 01 00:00:00
FILE “Spazz – Short Music For Short People – 54 – A Prayer For The Complete And Utter Eradication Of All Generic Pop-Punk.wav” WAVE
TRACK 54 AUDIO
TITLE “A Prayer For The Complete And Utter Eradication Of All Generic Pop-Punk”
PERFORMER “Spazz”
INDEX 01 00:00:00
FILE “Damned – Short Music For Short People – 55 – It’s A Real Time Thing.wav” WAVE
TRACK 55 AUDIO
TITLE “It’s A Real Time Thing”
PERFORMER “Damned”
INDEX 01 00:00:00
FILE “88 Fingers Louie – Short Music For Short People – 56 – All My Friends Are Popular.wav” WAVE
TRACK 56 AUDIO
TITLE “All My Friends Are Popular”
PERFORMER “88 Fingers Louie”
INDEX 01 00:00:00
FILE “D.O.A. – Short Music For Short People – 57 – I Hate Punk Rock.wav” WAVE
TRACK 57 AUDIO
TITLE “I Hate Punk Rock”
PERFORMER “D.O.A.”
INDEX 01 00:00:00
FILE “Pulley – Short Music For Short People – 58 – Fun.wav” WAVE
TRACK 58 AUDIO
TITLE “Fun”
PERFORMER “Pulley”
INDEX 01 00:00:00
FILE “Vandals – Short Music For Short People – 59 – To All The Kids.wav” WAVE
TRACK 59 AUDIO
TITLE “To All The Kids”
PERFORMER “Vandals”
INDEX 01 00:00:00
FILE “Pennywise – Short Music For Short People – 60 – 30 Seconds Till The End Of The World.wav” WAVE
TRACK 60 AUDIO
TITLE “30 Seconds Till The End Of The World”
PERFORMER “Pennywise”
INDEX 01 00:00:00
FILE “No Fun At All – Short Music For Short People – 61 – Get A Grip.wav” WAVE
TRACK 61 AUDIO
TITLE “Get A Grip”
PERFORMER “No Fun At All”
INDEX 01 00:00:00
FILE “Sick Of It All – Short Music For Short People – 62 – Blatty (Human Egg).wav” WAVE
TRACK 62 AUDIO
TITLE “Blatty (Human Egg)”
PERFORMER “Sick Of It All”
INDEX 01 00:00:00
FILE “All – Short Music For Short People – 63 – I Got None.wav” WAVE
TRACK 63 AUDIO
TITLE “I Got None”
PERFORMER “All”
INDEX 01 00:00:00
FILE “NOFX – Short Music For Short People – 64 – See Her Pee.wav” WAVE
TRACK 64 AUDIO
TITLE “See Her Pee”
PERFORMER “NOFX”
INDEX 01 00:00:00
FILE “7 Seconds – Short Music For Short People – 65 – F.O.F.O.D..wav” WAVE
TRACK 65 AUDIO
TITLE “F.O.F.O.D.”
PERFORMER “7 Seconds”
INDEX 01 00:00:00
FILE “Rancid – Short Music For Short People – 66 – Blacklisted.wav” WAVE
TRACK 66 AUDIO
TITLE “Blacklisted”
PERFORMER “Rancid”
INDEX 01 00:00:00
FILE “Diesel Boy – Short Music For Short People – 67 – Chandaliers & Souvenirs.wav” WAVE
TRACK 67 AUDIO
TITLE “Chandaliers & Souvenirs”
PERFORMER “Diesel Boy”
INDEX 01 00:00:00
FILE “Adrenalin O.D. – Short Music For Short People – 68 – Your Kung Fu Is Old… And Now You Must Die!.wav” WAVE
TRACK 68 AUDIO
TITLE “Your Kung Fu Is Old… And Now You Must Die!”
PERFORMER “Adrenalin O.D.”
INDEX 01 00:00:00
FILE “Frenzel Rhomb – Short Music For Short People – 69 – My Pants Keep Falling Down.wav” WAVE
TRACK 69 AUDIO
TITLE “My Pants Keep Falling Down”
PERFORMER “Frenzel Rhomb”
INDEX 01 00:00:00
FILE “Queers – Short Music For Short People – 70 – I Hate Your Fucking Guts.wav” WAVE
TRACK 70 AUDIO
TITLE “I Hate Your Fucking Guts”
PERFORMER “Queers”
INDEX 01 00:00:00
FILE “D.I. – Short Music For Short People – 71 – Comin’ To You Town.wav” WAVE
TRACK 71 AUDIO
TITLE “Comin’ To You Town”
PERFORMER “D.I.”
INDEX 01 00:00:00
FILE “Black Flag – Short Music For Short People – 72 – Spray Paint.wav” WAVE
TRACK 72 AUDIO
TITLE “Spray Paint”
PERFORMER “Black Flag”
INDEX 01 00:00:00
FILE “White Flag – Short Music For Short People – 73 – Rage Against The Machine Are Capitalist Phonies.wav” WAVE
TRACK 73 AUDIO
TITLE “Rage Against The Machine Are Capitalist Phonies”
PERFORMER “White Flag”
INDEX 01 00:00:00
FILE “Anti-Flag – Short Music For Short People – 74 – Bring It To An End.wav” WAVE
TRACK 74 AUDIO
TITLE “Bring It To An End”
PERFORMER “Anti-Flag”
INDEX 01 00:00:00
FILE “Avail – Short Music For Short People – 75 – Not A Happy Man.wav” WAVE
TRACK 75 AUDIO
TITLE “Not A Happy Man”
PERFORMER “Avail”
INDEX 01 00:00:00
FILE “Real McKenzies – Short Music For Short People – 76 – Old Mrs. Cuddy.wav” WAVE
TRACK 76 AUDIO
TITLE “Old Mrs. Cuddy”
PERFORMER “Real McKenzies”
INDEX 01 00:00:00
FILE “Agnostic Front – Short Music For Short People – 77 – Traitor.wav” WAVE
TRACK 77 AUDIO
TITLE “Traitor”
PERFORMER “Agnostic Front”
INDEX 01 00:00:00
FILE “Down By Law – Short Music For Short People – 78 – Life Rules 101.wav” WAVE
TRACK 78 AUDIO
TITLE “Life Rules 101”
PERFORMER “Down By Law”
INDEX 01 00:00:00
FILE “Radio Days – Short Music For Short People – 79 – Wake Up.wav” WAVE
TRACK 79 AUDIO
TITLE “Wake Up”
PERFORMER “Radio Days”
INDEX 01 00:00:00
FILE “Useless ID – Short Music For Short People – 80 – Too Bad You Don’t Get It.wav” WAVE
TRACK 80 AUDIO
TITLE “Too Bad You Don’t Get It”
PERFORMER “Useless ID”
INDEX 01 00:00:00
FILE “Poison Idea – Short Music For Short People – 81 – Humanity.wav” WAVE
TRACK 81 AUDIO
TITLE “Humanity”
PERFORMER “Poison Idea”
INDEX 01 00:00:00
FILE “Men O’ Steel – Short Music For Short People – 82 – In Your Head.wav” WAVE
TRACK 82 AUDIO
TITLE “In Your Head”
PERFORMER “Men O’ Steel”
INDEX 01 00:00:00
FILE “Subhumans – Short Music For Short People – 83 – Supermarket Forces.wav” WAVE
TRACK 83 AUDIO
TITLE “Supermarket Forces”
PERFORMER “Subhumans”
INDEX 01 00:00:00
FILE “Black Wild – Short Music For Short People – 84 – Tribute To The Mammal.wav” WAVE
TRACK 84 AUDIO
TITLE “Tribute To The Mammal”
PERFORMER “Black Wild”
INDEX 01 00:00:00
FILE “Lunachicks – Short Music For Short People – 85 – Pretty Houses.wav” WAVE
TRACK 85 AUDIO
TITLE “Pretty Houses”
PERFORMER “Lunachicks”
INDEX 01 00:00:00
FILE “Dwarves – Short Music For Short People – 86 – The Band That Wouldn’t Die.wav” WAVE
TRACK 86 AUDIO
TITLE “The Band That Wouldn’t Die”
PERFORMER “Dwarves”
INDEX 01 00:00:00
FILE “Bouncing Souls – Short Music For Short People – 87 – Like A Fish In Water.wav” WAVE
TRACK 87 AUDIO
TITLE “Like A Fish In Water”
PERFORMER “Bouncing Souls”
INDEX 01 00:00:00
FILE “Trigger Happy – Short Music For Short People – 88 – Turn It Up.wav” WAVE
TRACK 88 AUDIO
TITLE “Turn It Up”
PERFORMER “Trigger Happy”
INDEX 01 00:00:00
FILE “One Hit Wonder – Short Music For Short People – 89 – Madam’s Apple.wav” WAVE
TRACK 89 AUDIO
TITLE “Madam’s Apple”
PERFORMER “One Hit Wonder”
INDEX 01 00:00:00
FILE “Hot Box – Short Music For Short People – 90 – Staggering.wav” WAVE
TRACK 90 AUDIO
TITLE “Staggering”
PERFORMER “Hot Box”
INDEX 01 00:00:00
FILE “20 Percent – Short Music For Short People – 91 – DMV.wav” WAVE
TRACK 91 AUDIO
TITLE “DMV”
PERFORMER “20 Percent”
INDEX 01 00:00:00
FILE “Snuff – Short Music For Short People – 92 – Big Fat Skinhead.wav” WAVE
TRACK 92 AUDIO
TITLE “Big Fat Skinhead”
PERFORMER “Snuff”
INDEX 01 00:00:00
FILE “Muffs – Short Music For Short People – 93 – Pimmel.wav” WAVE
TRACK 93 AUDIO
TITLE “Pimmel”
PERFORMER “Muffs”
INDEX 01 00:00:00
FILE “H2O – Short Music For Short People – 94 – Mr. Brett, Please Put Down Your Gun.wav” WAVE
TRACK 94 AUDIO
TITLE “Mr. Brett, Please Put Down Your Gun”
PERFORMER “H2O”
INDEX 01 00:00:00
FILE “Bodyjar – Short Music For Short People – 95 – Wake Up.wav” WAVE
TRACK 95 AUDIO
TITLE “Wake Up”
PERFORMER “Bodyjar”
INDEX 01 00:00:00
FILE “Nicotine – Short Music For Short People – 96 – Eyez.wav” WAVE
TRACK 96 AUDIO
TITLE “Eyez”
PERFORMER “Nicotine”
INDEX 01 00:00:00
FILE “Satanic Surfers – Short Music For Short People – 97 – Another Stale Cartoon.wav” WAVE
TRACK 97 AUDIO
TITLE “Another Stale Cartoon”
PERFORMER “Satanic Surfers”
INDEX 01 00:00:00
FILE “Ten Foot Pole – Short Music For Short People – 98 – I Don’t Mind.wav” WAVE
TRACK 98 AUDIO
TITLE “I Don’t Mind”
PERFORMER “Ten Foot Pole”
INDEX 01 00:00:00
FILE “Caustic Soda – Short Music For Short People – 99 – Misfits , Wizo , Welcome To Dumpsville, Population- You , NY Ranger , The Count.wav” WAVE
TRACK 99 AUDIO
TITLE “Misfits / Wizo / Welcome To Dumpsville, Population: You / NY Ranger / The Count”
PERFORMER “Caustic Soda”
INDEX 01 00:00:00


Leave a Reply

Your email address will not be published. Required fields are marked *

Enter the text from the image below
 

This site uses Akismet to reduce spam. Learn how your comment data is processed.