Various Artists – Schlachtrufe BRD Vol. 6




Artist: Various Artists
Year: 2001
Genre: Punk
Notes: Discogs
Add. Notes:
Encoder: FLAC
Bitrate: ~1000 kBit/s (VBR)
Size: 425,04 MB
Password: “slam” (without ” “)


Tracklist:

1. Schlusspunkt	Gestorben	
2. Fahnenflucht	Willkommen In Deutschland	
3. Frustkiller	Gold Ohne Freiheit	
4. Untergangskommando	Punk Und Polizei	
5. Überflüssig	Tod Dem Naziterror	
6. Popperklopper	Verhör	
7. Betontod	Angst	
8. Baffdecks	Totenwächter	
9. Planlos	Nummer Im System	
10. Die Junge Union	Antifa	
11. Räubertochter	Schlacht Am Tegeler Weg	
12. Untergangskommando	Haß Und Gewalt	
13. Sprengsatz	Grüne Pestilenz	
14. Thanheiser	Unsere Schönsten Jahre	
15. Morgentot	Stoppt Den Hass	
16. Cadizer	Es brennt	
17. Troopers	Mord Und Totschlag	
18. Schandfleck	Ohne Sinn Und Verstand

EAC-Log, CUE-Sheed & NFO:

Click to open spoiler
PERFORMER “Various Artists”
TITLE “Schlachtrufe BRD Vol. 6”
FILE “01. Schlusspunkt – Gestorben.flac” WAVE
TRACK 01 AUDIO
TITLE “Schlusspunkt – Gestorben”
PERFORMER “Various Artists”
INDEX 01 00:00:00
FILE “02. Fahnenflucht – Willkommen in Deutschland.flac” WAVE
TRACK 02 AUDIO
TITLE “Fahnenflucht – Willkommen in Deutschland”
PERFORMER “Various Artists”
INDEX 01 00:00:00
FILE “03. Frustkiller – Gold ohne Freiheit.flac” WAVE
TRACK 03 AUDIO
TITLE “Frustkiller – Gold ohne Freiheit”
PERFORMER “Various Artists”
INDEX 01 00:00:00
FILE “04. U-Kommando – Punk und Polizei.flac” WAVE
TRACK 04 AUDIO
TITLE “U-Kommando – Punk und Polizei”
PERFORMER “Various Artists”
INDEX 01 00:00:00
FILE “05. Überflüssig – Tod dem Naziterror.flac” WAVE
TRACK 05 AUDIO
TITLE “Überflüssig – Tod dem Naziterror”
PERFORMER “Various Artists”
INDEX 01 00:00:00
FILE “06. Popperklopper – Verhör.flac” WAVE
TRACK 06 AUDIO
TITLE “Popperklopper – Verhör”
PERFORMER “Various Artists”
INDEX 01 00:00:00
FILE “07. Betontod – Angst.flac” WAVE
TRACK 07 AUDIO
TITLE “Betontod – Angst”
PERFORMER “Various Artists”
INDEX 01 00:00:00
FILE “08. Baffdecks – Totenwächter.flac” WAVE
TRACK 08 AUDIO
TITLE “Baffdecks – Totenwächter”
PERFORMER “Various Artists”
INDEX 01 00:00:00
FILE “09. Planlos – Nummer im System.flac” WAVE
TRACK 09 AUDIO
TITLE “Planlos – Nummer im System”
PERFORMER “Various Artists”
INDEX 01 00:00:00
FILE “10. Junge Union – Antifa.flac” WAVE
TRACK 10 AUDIO
TITLE “Junge Union – Antifa”
PERFORMER “Various Artists”
INDEX 01 00:00:00
FILE “11. Räubertochter – Schlacht am Tegeler Weg.flac” WAVE
TRACK 11 AUDIO
TITLE “Räubertochter – Schlacht am Tegeler Weg”
PERFORMER “Various Artists”
INDEX 01 00:00:00
FILE “12. U-Kommando – Haß und Gewalt.flac” WAVE
TRACK 12 AUDIO
TITLE “U-Kommando – Haß und Gewalt”
PERFORMER “Various Artists”
INDEX 01 00:00:00
FILE “13. Sprengsatz – Grüne Pestilenz.flac” WAVE
TRACK 13 AUDIO
TITLE “Sprengsatz – Grüne Pestilenz”
PERFORMER “Various Artists”
INDEX 01 00:00:00
FILE “14. Thanheiser – Unsere schönsten Jahre.flac” WAVE
TRACK 14 AUDIO
TITLE “Thanheiser – Unsere schönsten Jahre”
PERFORMER “Various Artists”
INDEX 01 00:00:00
FILE “15. Morgentot – Stoppt den Hass.flac” WAVE
TRACK 15 AUDIO
TITLE “Morgentot – Stoppt den Hass”
PERFORMER “Various Artists”
INDEX 01 00:00:00
FILE “16. Cadizier – Es brennt.flac” WAVE
TRACK 16 AUDIO
TITLE “Cadizier – Es brennt”
PERFORMER “Various Artists”
INDEX 01 00:00:00
FILE “17. Troopers – Mord und Totschlag.flac” WAVE
TRACK 17 AUDIO
TITLE “Troopers – Mord und Totschlag”
PERFORMER “Various Artists”
INDEX 01 00:00:00
FILE “18. Schandfleck – Ohne Sinn und Verstand.flac” WAVE
TRACK 18 AUDIO
TITLE “Schandfleck – Ohne Sinn und Verstand”
PERFORMER “Various Artists”
INDEX 01 00:00:00

Leave a Reply

Your email address will not be published. Required fields are marked *

This site uses Akismet to reduce spam. Learn how your comment data is processed.