Various Artists – Schlachtrufe BRD Vol. 04




Artist: Various Artists
Year: 1995
Genre: Punk
Notes: Discogs
Add. Notes:
Encoder: FLAC
Bitrate: ~1000 kBit/s (VBR)
Size: 391 MB
Password: “slam” (without ” “)


Tracklist:

1. Bums - Unsere Liga 
2. Dritte Wahl - Auge Um Auge 
3. Rawside - Schlag Zurück 
4. Chaos Z - Vergiß Es Nicht 
5. Terrorgruppe - Wochenendticket 
6. S.I.K. - Gerechtigkeit 
7. Sluts'n - Lichterketten 
8. Die Ärzte - BGS 
9. Morgentot - Fremdenhass 
10. Split Image - Kommerz 
11. Kapitulation B.o.N.n. - Schweine 
12. Toxic Walls - Es Ist Zeit 
13. Zusamm-Rottung - Großmaul 
14. Härter Bis Wolkig - Arbeit Leben 
Zukunft 
15. Sluts'n - Chaos-Kanal-Total 
16. Chaos Z - Duell Der Letzten 
17. Kapitulation B.o.N.n. - Blut 
18. Dritte Wahl - Greif Ein

EAC-Log, CUE-Sheed & NFO:

Click to open spoiler
Exact Audio Copy V1.3 from 2. September 2016

EAC extraction logfile from 24. February 2019, 16:10

Various Artists / Schlachtrufe BRD Vol.04

Used drive : HL-DT-STDVDRAM GUE0N Adapter: 1 ID: 0

Read mode : Secure
Utilize accurate stream : Yes
Defeat audio cache : Yes
Make use of C2 pointers : No

Read offset correction : 102
Overread into Lead-In and Lead-Out : No
Fill up missing offset samples with silence : Yes
Delete leading and trailing silent blocks : No
Null samples used in CRC calculations : Yes
Used interface : Native Win32 interface for Win NT & 2000
Gap handling : Appended to previous track

Used output format : User Defined Encoder
Selected bitrate : 1024 kBit/s
Quality : High
Add ID3 tag : No
Command line compressor : C:\Program Files (x86)\Exact Audio Copy\FLAC\FLAC.EXE
Additional command line options : -8 -V -T “ARTIST=%artist%” -T “TITLE=%title%” -T “ALBUM=%albumtitle%” -T “DATE=%year%” -T “TRACKNUMBER=%tracknr%” -T “GENRE=%genre%” -T “COMMENT=%comment%” -T “BAND=%albuminterpret%” -T “COMPOSER=%composer%” %haslyrics%–tag-from-file=LYRICS=”%lyricsfile%”%haslyrics% -T “DISCNUMBER=%cdnumber%” -T “TOTALDISCS=%totalcds%” -T “TOTALTRACKS=%numtracks%” %hascover%–picture=”%coverfile%”%hascover% %source% -o %dest%

TOC of the extracted CD

Track | Start | Length | Start sector | End sector
———————————————————
1 | 0:00.00 | 2:36.37 | 0 | 11736
2 | 2:36.37 | 2:41.23 | 11737 | 23834
3 | 5:17.60 | 2:25.37 | 23835 | 34746
4 | 7:43.22 | 3:10.23 | 34747 | 49019
5 | 10:53.45 | 2:38.25 | 49020 | 60894
6 | 13:31.70 | 3:33.50 | 60895 | 76919
7 | 17:05.45 | 5:15.00 | 76920 | 100544
8 | 22:20.45 | 1:03.47 | 100545 | 105316
9 | 23:24.17 | 2:29.30 | 105317 | 116521
10 | 25:53.47 | 3:16.40 | 116522 | 131261
11 | 29:10.12 | 2:43.48 | 131262 | 143534
12 | 31:53.60 | 1:37.10 | 143535 | 150819
13 | 33:30.70 | 3:40.50 | 150820 | 167369
14 | 37:11.45 | 1:46.35 | 167370 | 175354
15 | 38:58.05 | 2:49.60 | 175355 | 188089
16 | 41:47.65 | 3:04.10 | 188090 | 201899
17 | 44:52.00 | 3:01.65 | 201900 | 215539
18 | 47:53.65 | 3:50.02 | 215540 | 232791

Track 1

Filename D:\Eigene Musik\Various Artists\Schlachtrufe BRD Vol.04\01. BUMS – Unsere Liga.wav

Pre-gap length 0:00:02.00

Peak level 98.0 %
Extraction speed 2.3 X
Track quality 100.0 %
Test CRC B844BC93
Copy CRC B844BC93
Accurately ripped (confidence 6) [43ADB10C] (AR v2)
Copy OK

Track 2

Filename D:\Eigene Musik\Various Artists\Schlachtrufe BRD Vol.04\02. Dritte Wahl – Auge um Auge.wav

Pre-gap length 0:00:01.50

Peak level 97.7 %
Extraction speed 1.8 X
Track quality 99.9 %
Test CRC 7A4AB569
Copy CRC 7A4AB569
Accurately ripped (confidence 6) [C80E720B] (AR v2)
Copy OK

Track 3

Filename D:\Eigene Musik\Various Artists\Schlachtrufe BRD Vol.04\03. Rawside – Schlag zurück.wav

Pre-gap length 0:00:01.00

Peak level 98.0 %
Extraction speed 2.6 X
Track quality 100.0 %
Test CRC 7873C6AB
Copy CRC 7873C6AB
Accurately ripped (confidence 6) [176C73E4] (AR v2)
Copy OK

Track 4

Filename D:\Eigene Musik\Various Artists\Schlachtrufe BRD Vol.04\04. Chaos Z – Vergiß es nicht.wav

Pre-gap length 0:00:00.70

Peak level 98.0 %
Extraction speed 2.8 X
Track quality 100.0 %
Test CRC 096BCDAF
Copy CRC 096BCDAF
Accurately ripped (confidence 6) [DEDC9C76] (AR v2)
Copy OK

Track 5

Filename D:\Eigene Musik\Various Artists\Schlachtrufe BRD Vol.04\05. Terrorgruppe – Wochenendticket.wav

Pre-gap length 0:00:00.50

Peak level 98.0 %
Extraction speed 2.1 X
Track quality 99.9 %
Test CRC 557487B2
Copy CRC 557487B2
Accurately ripped (confidence 6) [F043CC69] (AR v2)
Copy OK

Track 6

Filename D:\Eigene Musik\Various Artists\Schlachtrufe BRD Vol.04\06. S.i.K. – Gerechtigkeit.wav

Pre-gap length 0:00:00.68

Peak level 98.7 %
Extraction speed 3.1 X
Track quality 100.0 %
Test CRC 680428E0
Copy CRC 680428E0
Accurately ripped (confidence 6) [50FAD682] (AR v2)
Copy OK

Track 7

Filename D:\Eigene Musik\Various Artists\Schlachtrufe BRD Vol.04\07. Sluts’N – Lichterketten.wav

Pre-gap length 0:00:01.05

Peak level 98.0 %
Extraction speed 3.5 X
Track quality 100.0 %
Test CRC 314F0756
Copy CRC 314F0756
Accurately ripped (confidence 6) [4D5398D0] (AR v2)
Copy OK

Track 8

Filename D:\Eigene Musik\Various Artists\Schlachtrufe BRD Vol.04\08. Die Ärzte – BGS.wav

Pre-gap length 0:00:00.50

Peak level 98.0 %
Extraction speed 2.5 X
Track quality 100.0 %
Test CRC 62C892FA
Copy CRC 62C892FA
Accurately ripped (confidence 6) [0BAE0872] (AR v2)
Copy OK

Track 9

Filename D:\Eigene Musik\Various Artists\Schlachtrufe BRD Vol.04\09. Morgentot – Fremdenhass.wav

Pre-gap length 0:00:01.20

Peak level 98.5 %
Extraction speed 2.5 X
Track quality 99.9 %
Test CRC 8D8F6F2F
Copy CRC 8D8F6F2F
Accurately ripped (confidence 6) [1D9073C3] (AR v2)
Copy OK

Track 10

Filename D:\Eigene Musik\Various Artists\Schlachtrufe BRD Vol.04\10. Split Image – Kommerz.wav

Pre-gap length 0:00:00.50

Peak level 98.9 %
Extraction speed 2.9 X
Track quality 99.9 %
Test CRC 64154D3D
Copy CRC 64154D3D
Accurately ripped (confidence 6) [3A18AFF1] (AR v2)
Copy OK

Track 11

Filename D:\Eigene Musik\Various Artists\Schlachtrufe BRD Vol.04\11. Kapitulation B.o.N.n. – Schweine.wav

Pre-gap length 0:00:00.55

Peak level 99.0 %
Extraction speed 2.7 X
Track quality 99.9 %
Test CRC A6E9DA96
Copy CRC A6E9DA96
Accurately ripped (confidence 6) [2C9FC27A] (AR v2)
Copy OK

Track 12

Filename D:\Eigene Musik\Various Artists\Schlachtrufe BRD Vol.04\12. Toxic Walls – Es ist Zeit.wav

Pre-gap length 0:00:00.65

Peak level 98.0 %
Extraction speed 3.2 X
Track quality 100.0 %
Test CRC F007452F
Copy CRC F007452F
Accurately ripped (confidence 5) [29A5B90D] (AR v2)
Copy OK

Track 13

Filename D:\Eigene Musik\Various Artists\Schlachtrufe BRD Vol.04\13. Die Zusamm-Rottung – Großmaul.wav

Pre-gap length 0:00:00.53

Peak level 99.0 %
Extraction speed 3.9 X
Track quality 100.0 %
Test CRC 7B3A23D5
Copy CRC 7B3A23D5
Accurately ripped (confidence 5) [7217BE26] (AR v2)
Copy OK

Track 14

Filename D:\Eigene Musik\Various Artists\Schlachtrufe BRD Vol.04\14. Härter bis wolkig – Arbeit Leben Zukunft.wav

Pre-gap length 0:00:00.63

Peak level 99.5 %
Extraction speed 3.5 X
Track quality 100.0 %
Test CRC 71C28319
Copy CRC 71C28319
Accurately ripped (confidence 6) [DCA4014B] (AR v2)
Copy OK

Track 15

Filename D:\Eigene Musik\Various Artists\Schlachtrufe BRD Vol.04\15. Sluts’N – Chaos-Kanal-Total.wav

Pre-gap length 0:00:00.50

Peak level 98.7 %
Extraction speed 4.1 X
Track quality 100.0 %
Test CRC 66D0906E
Copy CRC 66D0906E
Accurately ripped (confidence 6) [7FF67B39] (AR v2)
Copy OK

Track 16

Filename D:\Eigene Musik\Various Artists\Schlachtrufe BRD Vol.04\16. Chaos Z – Duell der Letzten.wav

Peak level 98.5 %
Extraction speed 4.2 X
Track quality 100.0 %
Test CRC 73250509
Copy CRC 73250509
Accurately ripped (confidence 6) [1CB276C6] (AR v2)
Copy OK

Track 17

Filename D:\Eigene Musik\Various Artists\Schlachtrufe BRD Vol.04\17. Kapitulation B.o.N.n. – Blut.wav

Peak level 98.0 %
Extraction speed 4.2 X
Track quality 100.0 %
Test CRC 04245D3B
Copy CRC 04245D3B
Accurately ripped (confidence 6) [DB7652EC] (AR v2)
Copy OK

Track 18

Filename D:\Eigene Musik\Various Artists\Schlachtrufe BRD Vol.04\18. Dritte Wahl – Greif ein.wav

Peak level 98.2 %
Extraction speed 4.5 X
Track quality 100.0 %
Test CRC F488E27A
Copy CRC F488E27A
Accurately ripped (confidence 6) [12800955] (AR v2)
Copy OK

All tracks accurately ripped

No errors occurred

End of status report

—- CUETools DB Plugin V2.1.6

[CTDB TOCID: 53wcB5xJGHghZyvkGIxxfhhG68w-] found
Submit result: 53wcB5xJGHghZyvkGIxxfhhG68w- has been confirmed
Track | CTDB Status
1 | (20/21) Accurately ripped
2 | (20/21) Accurately ripped
3 | (20/21) Accurately ripped
4 | (20/21) Accurately ripped
5 | (20/21) Accurately ripped
6 | (20/21) Accurately ripped
7 | (20/21) Accurately ripped
8 | (20/21) Accurately ripped
9 | (20/21) Accurately ripped
10 | (20/21) Accurately ripped
11 | (20/21) Accurately ripped
12 | (20/21) Accurately ripped
13 | (20/21) Accurately ripped
14 | (20/21) Accurately ripped
15 | (20/21) Accurately ripped
16 | (20/21) Accurately ripped
17 | (20/21) Accurately ripped
18 | (20/21) Accurately ripped

==== Log checksum 1BA1D2BFC78DB8865AEF5BECCD750F768E197FD68A53CC4F51BDCDFCC85DE4D5 ====

Leave a Reply

Your email address will not be published. Required fields are marked *

This site uses Akismet to reduce spam. Learn how your comment data is processed.