Various Artists – Schlachtrufe BRD Vol. 01




Artist: Various Artists
Year: 1990
Genre: Punk
Notes: Discogs
Add. Notes:
Cover incl.: No
Encoder: FLAC
Bitrate: ~1100 kBit/s (44.1 kHz/16 Bit/s)
Log & Cue incl.: Yes
Size: 232,81 MB
Password: “slam” (without ” “)


All Downloads/Hosters are compatible

Download 1
Turbobit.net
Rapidgator.net
UploadEver.com
JustUpload.io
UsersDrive.com
Download 2
Turbobit.net
Rapidgator.net
UploadEver.com
JustUpload.io
UsersDrive.com
Download 3
Turbobit.net
Rapidgator.net
UploadEver.com
JustUpload.io
UsersDrive.com

Tracklist:

01. NoRMAhl - Schwarz, Rot, Gold
02. NoRMAhl - Pflasterstein flieg
03. Maniacs - Deutschland
04. Maniacs - The White Rose
05. Boskops - Bulle halt's Maul
06. Boskops - Punkkartei
07. Boskops - Können Schweine schwimmen
08. Inferno - Tod und Zerstörung
09. The Idiots - Samstag Nacht
10. Chaos Z - Krieg
11. Chaos Z - 1980
12. Ausbruch - I've Got A Picture
13. Tin Can Army - Guten Morgen BRD
14. Inferno - Im Namen der Forschung
15. Inferno - Geschöpf ohne Gehirn

EAC-Log, CUE-Sheed & NFO:

Click to open spoiler
PERFORMER “Various Artists (Priester)”
TITLE “Schlachtrufe BRD Vol.01”
FILE “01. NoRMAhl – Schwarz, Rot, Gold.flac” WAVE
TRACK 01 AUDIO
TITLE “NoRMAhl / Schwarz, Rot, Gold”
PERFORMER “Various Artists (Priester)”
INDEX 01 00:00:00
FILE “02. NoRMAhl – Pflasterstein flieg.flac” WAVE
TRACK 02 AUDIO
TITLE “NoRMAhl / Pflasterstein flieg”
PERFORMER “Various Artists (Priester)”
INDEX 01 00:00:00
FILE “03. Maniacs – Deutschland.flac” WAVE
TRACK 03 AUDIO
TITLE “Maniacs / Deutschland”
PERFORMER “Various Artists (Priester)”
INDEX 01 00:00:00
FILE “04. Maniacs – The White Rose.flac” WAVE
TRACK 04 AUDIO
TITLE “Maniacs / The White Rose”
PERFORMER “Various Artists (Priester)”
INDEX 01 00:00:00
FILE “05. Boskops – Bulle halt’s Maul.flac” WAVE
TRACK 05 AUDIO
TITLE “Boskops / Bulle halt’s Maul”
PERFORMER “Various Artists (Priester)”
INDEX 01 00:00:00
FILE “06. Boskops – Punkkartei.flac” WAVE
TRACK 06 AUDIO
TITLE “Boskops / Punkkartei”
PERFORMER “Various Artists (Priester)”
INDEX 01 00:00:00
FILE “07. Boskops – Können Schweine schwimmen.flac” WAVE
TRACK 07 AUDIO
TITLE “Boskops / Können Schweine schwimmen?”
PERFORMER “Various Artists (Priester)”
INDEX 01 00:00:00
FILE “08. Inferno – Tod und Zerstörung.flac” WAVE
TRACK 08 AUDIO
TITLE “Inferno / Tod und Zerstörung”
PERFORMER “Various Artists (Priester)”
INDEX 01 00:00:00
FILE “09. The Idiots – Samstag Nacht.flac” WAVE
TRACK 09 AUDIO
TITLE “The Idiots / Samstag Nacht”
PERFORMER “Various Artists (Priester)”
INDEX 01 00:00:00
FILE “10. Chaos Z – Krieg.flac” WAVE
TRACK 10 AUDIO
TITLE “Chaos Z / Krieg”
PERFORMER “Various Artists (Priester)”
INDEX 01 00:00:00
FILE “11. Chaos Z – 1980.flac” WAVE
TRACK 11 AUDIO
TITLE “Chaos Z / 1980”
PERFORMER “Various Artists (Priester)”
INDEX 01 00:00:00
FILE “12. Ausbruch – I’ve Got A Picture.flac” WAVE
TRACK 12 AUDIO
TITLE “Ausbruch / I’ve Got A Picture”
PERFORMER “Various Artists (Priester)”
INDEX 01 00:00:00
FILE “13. Tin Can Army – Guten Morgen BRD.flac” WAVE
TRACK 13 AUDIO
TITLE “Tin Can Army / Guten Morgen BRD”
PERFORMER “Various Artists (Priester)”
INDEX 01 00:00:00
FILE “14. Inferno – Im Namen der Forschung.flac” WAVE
TRACK 14 AUDIO
TITLE “Inferno / Im Namen der Forschung”
PERFORMER “Various Artists (Priester)”
INDEX 01 00:00:00
FILE “15. Inferno – Geschöpf ohne Gehirn.flac” WAVE
TRACK 15 AUDIO
TITLE “Inferno / Geschöpf ohne Gehirn”
PERFORMER “Various Artists (Priester)”
INDEX 01 00:00:00

Leave a Reply

Your email address will not be published. Required fields are marked *

Enter the text from the image below
 

This site uses Akismet to reduce spam. Learn how your comment data is processed.