Various Artists – Punk & New Wave – The Ultimate Collection




Artist: Various Artists
Year: 2018
Genre: Punk
Notes: Discogs
Add. Notes:
Cover incl.: Yes
Encoder: FLAC
Bitrate: ~1000 kBit/s (44.1 kHz/16 Bit/s)
Log & Cue incl.: Yes
Size: 2148,21 MB
Password: “slam” (without ” “)


All Downloads/Hosters are compatible

Download 1
Turbobit.net
Rapidgator.net
KatFile.com
UploadRar.com
Download 2
Turbobit.net
Rapidgator.net
KatFile.com
UploadRar.com
Download 3
Turbobit.net
Rapidgator.net
KatFile.com
UploadRar.com

Tracklist:

1-01. The Jam 	The Modern World 	02:32
1-02. The Damned 	Neat Neat Neat 	02:41
1-03. Skids 	Into The Valley 	03:10
1-04. The Ruts 	Staring At The Rude Boys 	03:13
1-05. X-Ray Spex 	Germ Free Adolescents 	03:12
1-06. The Boomtown Rats 	Mary Of The 4th Form 	03:48
1-07. Joe Jackson 	Is She Really Going Out With Him? 	03:34
1-08. Simple Minds 	Life In A Day 	04:08
1-09. Tenpole Tudor 	The Swords Of A Thousand Men 	02:56
1-10. The Motors 	Airport 	04:31
1-11. Devo 	(I Can't Get Me No) Satisfaction 	02:40
1-12. Eddie And The Hot Rods 	Teenage Depression 	02:55
1-13. Magazine 	Touch And Go 	02:57
1-14. Angelic Upstarts 	Woman In Disguise 	03:07
1-15. Kilburn & The High Roads 	Billy Bentley	03:00
1-16. The Fall 	Kicker Conspiracy 	04:15
1-17. Killing Joke 	Follow The Leaders 	04:05
1-18. The Slits 	I Heard It Through The Grapevine	03:58
1:19. The Members 	Solitary Confinement 	03:54
1-20. The Dickies 	Nights In White Satin 	02:55
2-01. The Members 	Sound Of The Suburbs (Edit - 7'' Single Version) 	03:16
2-02. The Ruts 	Babylon's Burning (Single Version)	02:29
2-03. The Tubes 	Prime Time (Album Version) 	03:18
2-04. Jilted John 	Jilted John (Single Version) 	02:54
2-05. The Dickies 	Banana Splits (The Tra La La Song) 	01:54
2-06. Dead Kennedys 	Holiday In Cambodia 	04:39
2-07. The Damned 	Smash It Up 	02:51
2-08. Anti-Nowhere League 	Streets Of London 	03:16
2-09. Graham Parker And The Rumour 	Hold Back The Night 	03:02
2-10. Jonathan Richman & The Modern Lovers 	Roadrunner 	04:04
2-11. Squeeze (2) 	Take Me I'm Yours (Album Version) 	03:46
2-12. The Cure 	Jumping Someone Else's Train 	02:55
2-13. Japan 	The Unconventional 	03:02
2-14. The Regents 	7 Teen 	03:22
2-15. Mobiles 	Drowning In Berlin 	03:26
2-16. The Passions 	I'm In Love With A German Film Star 	04:00
2:17. China Crisis 	African And White 	03:46
2-18. Heaven 17 	(We Don't Need) That Facist Groove Thang 	04:19
2-19. The Human League 	Being Boiled 	03:39
2-20. Orchestral Manoeuvres In The Dark 	Electricity 	03:42
3-01. Buzzcocks 	Ever Fallen In Love... (With Someone You Shouldn't've) 	02:40
3-02. The Damned 	New Rose 	02:42
3-03. The Jam 	In The City 	02:18
3-04. Sham 69 	If The Kids Are United 	03:44
3-05. X-Ray Spex 	Identity 	02:23
3-06. Magazine 	Shot By Both Sides 	03:58
3-07. Eddie And The Hot Rods 	Do Anything You Wanna Do 	04:03
3-08. The Motors 	Forget About You 	02:51
3-09. The Boomtown Rats 	Looking After No.1 	03:07
3-10. Penetration (2) 	Don't Dictate 	02:52
3-11. Devo 	Come Back Jonee 	03:23
3-12. The Slits 	Typical Girls 	03:54
3-13. Alternative TV 	Action Time Vision 	02:32
3-14. The Boys (2) 	Kamikaze 	3:51
3-15. Wreckless Eric 	Whole Wide World 	02:51
3-16. Patrick Fitzgerald* 	Safety Pin Stuck In My Heart 	02:39
3-17. The Ruts 	In A Rut 	03:34
3-18. The Professionals (7) 	Just Another Dream 	03:03
3-19. Skids 	Sweet Suburbia 	02:24
3-20. The Fall 	Totally Wired 	03:24
4-01. Sham 69 	Hersham Boys 	03:24
4-02. The Professionals (7) 	1-2-3 	02:56
4-03. Buzzcocks 	What Do I Get? 	02:54
4-04. Spizzenergi 	Where's Captain Kirk? 	02:16
4-05. The Damned 	Love Song 	02:03
4-06. Penetration (2) 	Danger Signs 	02:27
4-07. Theatre Of Hate 	Do You Believe In The Westworld 	03:47
4-08. Toy Dolls 	Nellie The Elephant 	02:59
4-09. The Exploited 	Dead Cities 	01:52
4-10. Angelic Upstarts 	The Murder Of Liddle Towers 	04:37
4-11. Cockney Rejects 	Flares 'n Slippers 	01:36
4-12. Anti-Nowhere League 	I Hate People 	02:22
4-13. UK Subs 	C.I.D. 	01:55
4-14. G.B.H. 	No Survivors 	02:35
4-15. Discharge 	Never Again 	02:20
4-16. The Adicts 	Bad Boy 	03:26
4-17. Anti-Pasti 	Six Guns 	03:37
4-18. Blitz (3) 	Never Surrender 	01:32
4-19. Chron Gen 	Jet Boy Jet Girl 	02:14
4-20. The Crack 	Don't You Ever Let Me Know 	03:34
5-01. The Human League 	Empire State Human 	03:13
5-02. Simple Minds 	The American 	03:34
5-03. The Cure 	A Forest 	04:54
5-04. Jona Lewie 	You'll Always Find Me In The Kitchen At Parties 	03:01
5-05. Japan 	Don't Rain On My Parade 	02:55
5-06. The Jags 	Back Of My Hand 	03:20
5-07. Joe Jackson 	I'm The Man 	03:58
5-08. Tenpole Tudor 	Wunderbar 	03:01
5-09. Mobiles 	Amour Amour 	04:09
5-10. Mo-Dettes 	Paint It Black 	02:17
5-11. Squeeze (2) 	Goodbye Girl 	03:00
5-12. Any Trouble 	Yesterday's Love 	02:48
5-13. Yachts 	Suffice To Say 	03:14
5-14. Johnny And The Self Abusers 	Saints And Sinners 	01:51
5-15. Subs (4) 	Gimme Your Heart 	03:02
5-16. Radio Stars 	Nervous Wreck 	01:59
5-17. The Freshies 	I'm In Love With The Girl On A 
Certain Manchester Megastore Check-Out Desk 	02:52
5-18. The Planets (2) 	Lines 	03:22
5-19. Small Ads 	Small Ads 	02:48
5-20. Toyah 	Leya 	03:38

EAC-Log, CUE-Sheed & NFO:

Click to open spoiler
Information ripping to FLAC, ‘Track 1’ to ‘Ultimate Punk And New Wave [CD1x5]\01 The Jam – The Modern World.flac’
Track 1: Ripped LBA 0 to 11459 (2:32) in 0:31. Filename: Ultimate Punk And New Wave [CD1x5]\01 The Jam – The Modern World._
Secure [Pass 1 & 2]
CRC32: 15978EDF AccurateRip CRC: 1B881D1F (CRCv2) [DiscID: 020-002f3b00-02bc7c8a-fd0fda14-1]

Information ripping to FLAC, ‘Track 2’ to ‘Ultimate Punk And New Wave [CD1x5]\02 The Damned – Neat Neat Neat.flac’
Track 2: Ripped LBA 11459 to 23569 (2:41) in 0:30. Filename: Ultimate Punk And New Wave [CD1x5]\02 The Damned – Neat Neat Neat._
Secure [Pass 1 & 2]
CRC32: 66D14C92 AccurateRip CRC: AD0EA9DC (CRCv2) [DiscID: 020-002f3b00-02bc7c8a-fd0fda14-2]

Information ripping to FLAC, ‘Track 3’ to ‘Ultimate Punk And New Wave [CD1x5]\03 Skids – Into The Valley.flac’
Track 3: Ripped LBA 23569 to 37861 (3:10) in 0:33. Filename: Ultimate Punk And New Wave [CD1x5]\03 Skids – Into The Valley._
Secure [Pass 1 & 2]
CRC32: B9F0ADE7 AccurateRip CRC: 974E6784 (CRCv2) [DiscID: 020-002f3b00-02bc7c8a-fd0fda14-3]

Information ripping to FLAC, ‘Track 4’ to ‘Ultimate Punk And New Wave [CD1x5]\04 The Ruts – Staring At the Rude Boys.flac’
Track 4: Ripped LBA 37861 to 52352 (3:13) in 0:32. Filename: Ultimate Punk And New Wave [CD1x5]\04 The Ruts – Staring At the Rude Boys._
Secure [Pass 1 & 2]
CRC32: 18B1126E AccurateRip CRC: 1AAE1065 (CRCv2) [DiscID: 020-002f3b00-02bc7c8a-fd0fda14-4]

Information ripping to FLAC, ‘Track 5’ to ‘Ultimate Punk And New Wave [CD1x5]\05 X-Ray Spex – Germ Free Adolescents.flac’
Track 5: Ripped LBA 52352 to 66759 (3:12) in 0:30. Filename: Ultimate Punk And New Wave [CD1x5]\05 X-Ray Spex – Germ Free Adolescents._
Secure [Pass 1 & 2]
CRC32: C2774171 AccurateRip CRC: 6AA259CD (CRCv2) [DiscID: 020-002f3b00-02bc7c8a-fd0fda14-5]

Information ripping to FLAC, ‘Track 6’ to ‘Ultimate Punk And New Wave [CD1x5]\06 The Boomtown Rats – Mary Of The 4Th Form.flac’
Track 6: Ripped LBA 66759 to 83912 (3:48) in 0:33. Filename: Ultimate Punk And New Wave [CD1x5]\06 The Boomtown Rats – Mary Of The 4Th Form._
Secure [Pass 1 & 2]
CRC32: 905EBECB AccurateRip CRC: D52DB48B (CRCv2) [DiscID: 020-002f3b00-02bc7c8a-fd0fda14-6]

Information ripping to FLAC, ‘Track 7’ to ‘Ultimate Punk And New Wave [CD1x5]\07 Joe Jackson – Is She Really Going Out With Him.flac’
Track 7: Ripped LBA 83912 to 100010 (3:34) in 0:30. Filename: Ultimate Punk And New Wave [CD1x5]\07 Joe Jackson – Is She Really Going Out With Him._
Secure [Pass 1 & 2]
CRC32: 94A510C4 AccurateRip CRC: AD6AE2F7 (CRCv2) [DiscID: 020-002f3b00-02bc7c8a-fd0fda14-7]

Information ripping to FLAC, ‘Track 8’ to ‘Ultimate Punk And New Wave [CD1x5]\08 Simple Minds – Life In A Day.flac’
Track 8: Ripped LBA 100010 to 118491 (4:06) in 0:32. Filename: Ultimate Punk And New Wave [CD1x5]\08 Simple Minds – Life In A Day._
Secure [Pass 1 & 2]
CRC32: BB7566EC AccurateRip CRC: 3D595D10 (CRCv2) [DiscID: 020-002f3b00-02bc7c8a-fd0fda14-8]

Information ripping to FLAC, ‘Track 9’ to ‘Ultimate Punk And New Wave [CD1x5]\09 Tenpole Tudor – Swords Of A Thousand Men.flac’
Track 9: Ripped LBA 118491 to 131704 (2:56) in 0:23. Filename: Ultimate Punk And New Wave [CD1x5]\09 Tenpole Tudor – Swords Of A Thousand Men._
Secure [Pass 1 & 2]
CRC32: 7A7EEDDF AccurateRip CRC: ABD1FD6E (CRCv2) [DiscID: 020-002f3b00-02bc7c8a-fd0fda14-9]

Information ripping to FLAC, ‘Track 10’ to ‘Ultimate Punk And New Wave [CD1x5]\10 The Motors – Airport.flac’
Track 10: Ripped LBA 131704 to 152086 (4:31) in 0:33. Filename: Ultimate Punk And New Wave [CD1x5]\10 The Motors – Airport._
Secure [Pass 1 & 2]
CRC32: 40FA4A0D AccurateRip CRC: 974C98F0 (CRCv2) [DiscID: 020-002f3b00-02bc7c8a-fd0fda14-10]

Information ripping to FLAC, ‘Track 11’ to ‘Ultimate Punk And New Wave [CD1x5]\11 Devo – I Can’t Get Me No Satisfaction.flac’
Track 11: Ripped LBA 152086 to 164117 (2:40) in 0:20. Filename: Ultimate Punk And New Wave [CD1x5]\11 Devo – I Can’t Get Me No Satisfaction._
Secure [Pass 1 & 2]
CRC32: 3BDA9C13 AccurateRip CRC: CEF3D05D (CRCv2) [DiscID: 020-002f3b00-02bc7c8a-fd0fda14-11]

Information ripping to FLAC, ‘Track 12’ to ‘Ultimate Punk And New Wave [CD1x5]\12 Eddie And The Hot Rods – Teenage Depression.flac’
Track 12: Ripped LBA 164117 to 177287 (2:55) in 0:21. Filename: Ultimate Punk And New Wave [CD1x5]\12 Eddie And The Hot Rods – Teenage Depression._
Secure [Pass 1 & 2]
CRC32: 975DADFD AccurateRip CRC: B6934190 (CRCv2) [DiscID: 020-002f3b00-02bc7c8a-fd0fda14-12]

Information ripping to FLAC, ‘Track 13’ to ‘Ultimate Punk And New Wave [CD1x5]\13 Magazine – Touch And Go.flac’
Track 13: Ripped LBA 177287 to 190584 (2:57) in 0:21. Filename: Ultimate Punk And New Wave [CD1x5]\13 Magazine – Touch And Go._
Secure [Pass 1 & 2]
CRC32: F59BDF9F AccurateRip CRC: E30E3BFD (CRCv2) [DiscID: 020-002f3b00-02bc7c8a-fd0fda14-13]

Information ripping to FLAC, ‘Track 14’ to ‘Ultimate Punk And New Wave [CD1x5]\14 Angelic Upstarts – Woman In Disguise.flac’
Track 14: Ripped LBA 190584 to 204613 (3:07) in 0:22. Filename: Ultimate Punk And New Wave [CD1x5]\14 Angelic Upstarts – Woman In Disguise._
Secure [Pass 1 & 2]
CRC32: 766670F1 AccurateRip CRC: A9A8355C (CRCv2) [DiscID: 020-002f3b00-02bc7c8a-fd0fda14-14]

Information ripping to FLAC, ‘Track 15’ to ‘Ultimate Punk And New Wave [CD1x5]\15 Kilburn And The High Roads – Billy Bentley.flac’
Track 15: Ripped LBA 204613 to 218183 (3:00) in 0:21. Filename: Ultimate Punk And New Wave [CD1x5]\15 Kilburn And The High Roads – Billy Bentley._
Secure [Pass 1 & 2]
CRC32: 833D1605 AccurateRip CRC: 0F493AB0 (CRCv2) [DiscID: 020-002f3b00-02bc7c8a-fd0fda14-15]

Information ripping to FLAC, ‘Track 16’ to ‘Ultimate Punk And New Wave [CD1x5]\16 The Fall – Kicker Conspiracy.flac’
Track 16: Ripped LBA 218183 to 237326 (4:15) in 0:27. Filename: Ultimate Punk And New Wave [CD1x5]\16 The Fall – Kicker Conspiracy._
Secure [Pass 1 & 2]
CRC32: 876DBFE8 AccurateRip CRC: C2C87CF8 (CRCv2) [DiscID: 020-002f3b00-02bc7c8a-fd0fda14-16]

Information ripping to FLAC, ‘Track 17’ to ‘Ultimate Punk And New Wave [CD1x5]\17 Killing Joke – Follow The Leaders.flac’
Track 17: Ripped LBA 237326 to 255749 (4:05) in 0:25. Filename: Ultimate Punk And New Wave [CD1x5]\17 Killing Joke – Follow The Leaders._
Secure [Pass 1 & 2]
CRC32: 697C92B2 AccurateRip CRC: EC5F6A39 (CRCv2) [DiscID: 020-002f3b00-02bc7c8a-fd0fda14-17]

Information ripping to FLAC, ‘Track 18’ to ‘Ultimate Punk And New Wave [CD1x5]\18 The Slits – I Heard It Through The Grapevine.flac’
Track 18: Ripped LBA 255749 to 273663 (3:58) in 0:25. Filename: Ultimate Punk And New Wave [CD1x5]\18 The Slits – I Heard It Through The Grapevine._
Secure [Pass 1 & 2]
CRC32: 9D474FB6 AccurateRip CRC: EB49B2F9 (CRCv2) [DiscID: 020-002f3b00-02bc7c8a-fd0fda14-18]

Information ripping to FLAC, ‘Track 19’ to ‘Ultimate Punk And New Wave [CD1x5]\19 The Members – Solitary Confinement.flac’
Track 19: Ripped LBA 273663 to 291217 (3:54) in 0:23. Filename: Ultimate Punk And New Wave [CD1x5]\19 The Members – Solitary Confinement._
Secure [Pass 1 & 2]
CRC32: 9B4962CF AccurateRip CRC: E5DA70E5 (CRCv2) [DiscID: 020-002f3b00-02bc7c8a-fd0fda14-19]

Information ripping to FLAC, ‘Track 20’ to ‘Ultimate Punk And New Wave [CD1x5]\20 The Dickies – Nights In White Satin.flac’
Track 20: Ripped LBA 291217 to 304354 (2:55) in 0:18. Filename: Ultimate Punk And New Wave [CD1x5]\20 The Dickies – Nights In White Satin._
Secure [Pass 1 & 2]
CRC32: A8EA7191 AccurateRip CRC: 94D650BD (CRCv2) [DiscID: 020-002f3b00-02bc7c8a-fd0fda14-20]

Information ripping to FLAC, ‘Track 1’ to ‘Ultimate Punk And New Wave [CD2x5]\01 The Members – The Sound Of The Suburbs.flac’
Track 1: Ripped LBA 0 to 14702 (3:16) in 0:38. Filename: Ultimate Punk And New Wave [CD2x5]\01 The Members – The Sound Of The Suburbs._
Secure [Pass 1 & 2]
CRC32: 6B08A79C AccurateRip CRC: F55908D5 (CRCv2) [DiscID: 020-002e8c1b-02b32228-300fe414-1]

Information ripping to FLAC, ‘Track 2’ to ‘Ultimate Punk And New Wave [CD2x5]\02 The Ruts – Babylons Burning.flac’
Track 2: Ripped LBA 14702 to 25929 (2:29) in 0:28. Filename: Ultimate Punk And New Wave [CD2x5]\02 The Ruts – Babylons Burning._
Secure [Pass 1 & 2]
CRC32: B446B597 AccurateRip CRC: 1F0B454A (CRCv2) [DiscID: 020-002e8c1b-02b32228-300fe414-2]

Information ripping to FLAC, ‘Track 3’ to ‘Ultimate Punk And New Wave [CD2x5]\03 The Tubes – Prime Time.flac’
Track 3: Ripped LBA 25929 to 40829 (3:18) in 0:34. Filename: Ultimate Punk And New Wave [CD2x5]\03 The Tubes – Prime Time._
Secure [Pass 1 & 2]
CRC32: 1A0CC560 AccurateRip CRC: 3A9D2930 (CRCv2) [DiscID: 020-002e8c1b-02b32228-300fe414-3]

Information ripping to FLAC, ‘Track 4’ to ‘Ultimate Punk And New Wave [CD2x5]\04 Jilted John – Jilted John.flac’
Track 4: Ripped LBA 40829 to 53946 (2:54) in 0:29. Filename: Ultimate Punk And New Wave [CD2x5]\04 Jilted John – Jilted John._
Secure [Pass 1 & 2]
CRC32: BC41194C AccurateRip CRC: E11F10BE (CRCv2) [DiscID: 020-002e8c1b-02b32228-300fe414-4]

Information ripping to FLAC, ‘Track 5’ to ‘Ultimate Punk And New Wave [CD2x5]\05 The Dickies – Banana Splits.flac’
Track 5: Ripped LBA 53946 to 62512 (1:54) in 0:19. Filename: Ultimate Punk And New Wave [CD2x5]\05 The Dickies – Banana Splits._
Secure [Pass 1 & 2]
CRC32: 44EE4A28 AccurateRip CRC: EC70212C (CRCv2) [DiscID: 020-002e8c1b-02b32228-300fe414-5]

Information ripping to FLAC, ‘Track 6’ to ‘Ultimate Punk And New Wave [CD2x5]\06 Dead Kennedys – Holiday In Cambodia.flac’
Track 6: Ripped LBA 62512 to 83496 (4:39) in 0:40. Filename: Ultimate Punk And New Wave [CD2x5]\06 Dead Kennedys – Holiday In Cambodia._
Secure [Pass 1 & 2]
CRC32: 9D82E94C AccurateRip CRC: 08AA9B37 (CRCv2) [DiscID: 020-002e8c1b-02b32228-300fe414-6]

Information ripping to FLAC, ‘Track 7’ to ‘Ultimate Punk And New Wave [CD2x5]\07 The Damned – Smash It Up.flac’
Track 7: Ripped LBA 83496 to 96328 (2:51) in 0:25. Filename: Ultimate Punk And New Wave [CD2x5]\07 The Damned – Smash It Up._
Secure [Pass 1 & 2]
CRC32: 8C3AB429 AccurateRip CRC: E520BE08 (CRCv2) [DiscID: 020-002e8c1b-02b32228-300fe414-7]

Information ripping to FLAC, ‘Track 8’ to ‘Ultimate Punk And New Wave [CD2x5]\08 Anti Nowhere League – Streets Of London.flac’
Track 8: Ripped LBA 96328 to 111058 (3:16) in 0:27. Filename: Ultimate Punk And New Wave [CD2x5]\08 Anti Nowhere League – Streets Of London._
Secure [Pass 1 & 2]
CRC32: CCB97E36 AccurateRip CRC: 02E15901 (CRCv2) [DiscID: 020-002e8c1b-02b32228-300fe414-8]

Information ripping to FLAC, ‘Track 9’ to ‘Ultimate Punk And New Wave [CD2x5]\09 Graham Parker And The Rumour – Hold Back The Night.flac’
Track 9: Ripped LBA 111058 to 124746 (3:02) in 0:24. Filename: Ultimate Punk And New Wave [CD2x5]\09 Graham Parker And The Rumour – Hold Back The Night._
Secure [Pass 1 & 2]
CRC32: C35363CC AccurateRip CRC: 36475ED8 (CRCv2) [DiscID: 020-002e8c1b-02b32228-300fe414-9]

Information ripping to FLAC, ‘Track 10’ to ‘Ultimate Punk And New Wave [CD2x5]\10 Jonathan Richman And The Modern Lovers – Roadrunner.flac’
Track 10: Ripped LBA 124746 to 143085 (4:04) in 0:30. Filename: Ultimate Punk And New Wave [CD2x5]\10 Jonathan Richman And The Modern Lovers – Roadrunner._
Secure [Pass 1 & 2]
CRC32: DCE03413 AccurateRip CRC: C9CDAF39 (CRCv2) [DiscID: 020-002e8c1b-02b32228-300fe414-10]

Information ripping to FLAC, ‘Track 11’ to ‘Ultimate Punk And New Wave [CD2x5]\11 Squeeze – Take Me I’m Yours.flac’
Track 11: Ripped LBA 143085 to 160075 (3:46) in 0:27. Filename: Ultimate Punk And New Wave [CD2x5]\11 Squeeze – Take Me I’m Yours._
Secure [Pass 1 & 2]
CRC32: 1F1A7CFB AccurateRip CRC: 245C2843 (CRCv2) [DiscID: 020-002e8c1b-02b32228-300fe414-11]

Information ripping to FLAC, ‘Track 12’ to ‘Ultimate Punk And New Wave [CD2x5]\12 The Cure – Jumping Someone Else’s Train.flac’
Track 12: Ripped LBA 160075 to 173246 (2:55) in 0:21. Filename: Ultimate Punk And New Wave [CD2x5]\12 The Cure – Jumping Someone Else’s Train._
Secure [Pass 1 & 2]
CRC32: 96261483 AccurateRip CRC: 917C008A (CRCv2) [DiscID: 020-002e8c1b-02b32228-300fe414-12]

Information ripping to FLAC, ‘Track 13’ to ‘Ultimate Punk And New Wave [CD2x5]\13 Japan – The Unconventional.flac’
Track 13: Ripped LBA 173246 to 186961 (3:02) in 0:22. Filename: Ultimate Punk And New Wave [CD2x5]\13 Japan – The Unconventional._
Secure [Pass 1 & 2]
CRC32: 71EDC53B AccurateRip CRC: 472A8504 (CRCv2) [DiscID: 020-002e8c1b-02b32228-300fe414-13]

Information ripping to FLAC, ‘Track 14’ to ‘Ultimate Punk And New Wave [CD2x5]\14 The Regents – 7Teen.flac’
Track 14: Ripped LBA 186961 to 202140 (3:22) in 0:23. Filename: Ultimate Punk And New Wave [CD2x5]\14 The Regents – 7Teen._
Secure [Pass 1 & 2]
CRC32: 4886E99E AccurateRip CRC: ED419310 (CRCv2) [DiscID: 020-002e8c1b-02b32228-300fe414-14]

Information ripping to FLAC, ‘Track 15’ to ‘Ultimate Punk And New Wave [CD2x5]\15 The Mobiles – Drowning In Berlin.flac’
Track 15: Ripped LBA 202140 to 217596 (3:26) in 0:23. Filename: Ultimate Punk And New Wave [CD2x5]\15 The Mobiles – Drowning In Berlin._
Secure [Pass 1 & 2]
CRC32: D38B5C2D AccurateRip CRC: 51B4121E (CRCv2) [DiscID: 020-002e8c1b-02b32228-300fe414-15]

Information ripping to FLAC, ‘Track 16’ to ‘Ultimate Punk And New Wave [CD2x5]\16 The Passions – I’m In Love With A German Film Star.flac’
Track 16: Ripped LBA 217596 to 235616 (4:00) in 0:26. Filename: Ultimate Punk And New Wave [CD2x5]\16 The Passions – I’m In Love With A German Film Star._
Secure [Pass 1 & 2]
CRC32: 1BFF7760 AccurateRip CRC: ACB325FE (CRCv2) [DiscID: 020-002e8c1b-02b32228-300fe414-16]

Information ripping to FLAC, ‘Track 17’ to ‘Ultimate Punk And New Wave [CD2x5]\17 China Crisis – African and White.flac’
Track 17: Ripped LBA 235616 to 252572 (3:46) in 0:24. Filename: Ultimate Punk And New Wave [CD2x5]\17 China Crisis – African and White._
Secure [Pass 1 & 2]
CRC32: 7B38F076 AccurateRip CRC: 6951BF91 (CRCv2) [DiscID: 020-002e8c1b-02b32228-300fe414-17]

Information ripping to FLAC, ‘Track 18’ to ‘Ultimate Punk And New Wave [CD2x5]\18 Heaven 17 – We Don’t Need This Fascist Groove Thang.flac’
Track 18: Ripped LBA 252572 to 272042 (4:19) in 0:26. Filename: Ultimate Punk And New Wave [CD2x5]\18 Heaven 17 – We Don’t Need This Fascist Groove Thang._
Secure [Pass 1 & 2]
CRC32: FF713221 AccurateRip CRC: B7995930 (CRCv2) [DiscID: 020-002e8c1b-02b32228-300fe414-18]

Information ripping to FLAC, ‘Track 19’ to ‘Ultimate Punk And New Wave [CD2x5]\19 The Human League – Being Boiled.flac’
Track 19: Ripped LBA 272042 to 288481 (3:39) in 0:22. Filename: Ultimate Punk And New Wave [CD2x5]\19 The Human League – Being Boiled._
Secure [Pass 1 & 2]
CRC32: 81228FB0 AccurateRip CRC: 26751EA9 (CRCv2) [DiscID: 020-002e8c1b-02b32228-300fe414-19]

Information ripping to FLAC, ‘Track 20’ to ‘Ultimate Punk And New Wave [CD2x5]\20 Orchestral Manoeuvres In The Dark – Electricity.flac’
Track 20: Ripped LBA 288481 to 305163 (3:42) in 0:22. Filename: Ultimate Punk And New Wave [CD2x5]\20 Orchestral Manoeuvres In The Dark – Electricity._
Secure [Pass 1 & 2]
CRC32: A2DC361B AccurateRip CRC: B835F74B (CRCv2) [DiscID: 020-002e8c1b-02b32228-300fe414-20]

Information ripping to FLAC, ‘Track 1’ to ‘Ultimate Punk And New Wave [CD3x5]\01 The Buzzcocks – Ever Fallen In Love With Someone You Shouldn’t Have.flac’
Track 1: Ripped LBA 0 to 12072 (2:40) in 0:37. Filename: Ultimate Punk And New Wave [CD3x5]\01 The Buzzcocks – Ever Fallen In Love With Someone You Shouldn’t Have._
Secure [Pass 1 & 2]
CRC32: 75321155 AccurateRip CRC: 6F5EBBA5 (CRCv2) [DiscID: 020-002ca112-02936f09-2e0e9f14-1]

Information ripping to FLAC, ‘Track 2’ to ‘Ultimate Punk And New Wave [CD3x5]\02 The Damned – New Rose.flac’
Track 2: Ripped LBA 12072 to 24291 (2:42) in 0:34. Filename: Ultimate Punk And New Wave [CD3x5]\02 The Damned – New Rose._
Secure [Pass 1 & 2]
CRC32: 84095386 AccurateRip CRC: DFC273F6 (CRCv2) [DiscID: 020-002ca112-02936f09-2e0e9f14-2]

Information ripping to FLAC, ‘Track 3’ to ‘Ultimate Punk And New Wave [CD3x5]\03 The Jam – In The City.flac’
Track 3: Ripped LBA 24291 to 34701 (2:18) in 0:28. Filename: Ultimate Punk And New Wave [CD3x5]\03 The Jam – In The City._
Secure [Pass 1 & 2]
CRC32: 4782331D AccurateRip CRC: A16861FC (CRCv2) [DiscID: 020-002ca112-02936f09-2e0e9f14-3]

Information ripping to FLAC, ‘Track 4’ to ‘Ultimate Punk And New Wave [CD3x5]\04 Sham 69 – If The Kids Are United.flac’
Track 4: Ripped LBA 34701 to 51546 (3:44) in 0:40. Filename: Ultimate Punk And New Wave [CD3x5]\04 Sham 69 – If The Kids Are United._
Secure [Pass 1 & 2]
CRC32: EFA96D55 AccurateRip CRC: DC5CE5A6 (CRCv2) [DiscID: 020-002ca112-02936f09-2e0e9f14-4]

Information ripping to FLAC, ‘Track 5’ to ‘Ultimate Punk And New Wave [CD3x5]\05 X-Ray Spex – Identity.flac’
Track 5: Ripped LBA 51546 to 62277 (2:23) in 0:25. Filename: Ultimate Punk And New Wave [CD3x5]\05 X-Ray Spex – Identity._
Secure [Pass 1 & 2]
CRC32: 98DA639B AccurateRip CRC: AF97D423 (CRCv2) [DiscID: 020-002ca112-02936f09-2e0e9f14-5]

Information ripping to FLAC, ‘Track 6’ to ‘Ultimate Punk And New Wave [CD3x5]\06 Magazine – Shot By Both Sides.flac’
Track 6: Ripped LBA 62277 to 80198 (3:58) in 0:38. Filename: Ultimate Punk And New Wave [CD3x5]\06 Magazine – Shot By Both Sides._
Secure [Pass 1 & 2]
CRC32: 1A9C7A68 AccurateRip CRC: 689AF609 (CRCv2) [DiscID: 020-002ca112-02936f09-2e0e9f14-6]

Information ripping to FLAC, ‘Track 7’ to ‘Ultimate Punk And New Wave [CD3x5]\07 Eddie And The Hot Rods – Do Anything You Wanna Do.flac’
Track 7: Ripped LBA 80198 to 98474 (4:03) in 0:37. Filename: Ultimate Punk And New Wave [CD3x5]\07 Eddie And The Hot Rods – Do Anything You Wanna Do._
Secure [Pass 1 & 2]
CRC32: 93D6FB0C AccurateRip CRC: 2393A8BB (CRCv2) [DiscID: 020-002ca112-02936f09-2e0e9f14-7]

Information ripping to FLAC, ‘Track 8’ to ‘Ultimate Punk And New Wave [CD3x5]\08 The Motors – Forget About You.flac’
Track 8: Ripped LBA 98474 to 111301 (2:51) in 0:26. Filename: Ultimate Punk And New Wave [CD3x5]\08 The Motors – Forget About You._
Secure [Pass 1 & 2]
CRC32: C507D7B5 AccurateRip CRC: 6CB533CA (CRCv2) [DiscID: 020-002ca112-02936f09-2e0e9f14-8]

Information ripping to FLAC, ‘Track 9’ to ‘Ultimate Punk And New Wave [CD3x5]\09 Boomtown Rats – Looking After No 1.flac’
Track 9: Ripped LBA 111301 to 125389 (3:07) in 0:27. Filename: Ultimate Punk And New Wave [CD3x5]\09 Boomtown Rats – Looking After No 1._
Secure [Pass 1 & 2]
CRC32: 5231BD99 AccurateRip CRC: 32A27816 (CRCv2) [DiscID: 020-002ca112-02936f09-2e0e9f14-9]

Information ripping to FLAC, ‘Track 10’ to ‘Ultimate Punk And New Wave [CD3x5]\10 Penetration – Don’t Dictate.flac’
Track 10: Ripped LBA 125389 to 138319 (2:52) in 0:25. Filename: Ultimate Punk And New Wave [CD3x5]\10 Penetration – Don’t Dictate._
Secure [Pass 1 & 2]
CRC32: AB7167AC AccurateRip CRC: 2F93441A (CRCv2) [DiscID: 020-002ca112-02936f09-2e0e9f14-10]

Information ripping to FLAC, ‘Track 11’ to ‘Ultimate Punk And New Wave [CD3x5]\11 Devo – Come Back Jonee.flac’
Track 11: Ripped LBA 138319 to 153563 (3:23) in 0:27. Filename: Ultimate Punk And New Wave [CD3x5]\11 Devo – Come Back Jonee._
Secure [Pass 1 & 2]
CRC32: 831DE703 AccurateRip CRC: 15D5CFB6 (CRCv2) [DiscID: 020-002ca112-02936f09-2e0e9f14-11]

Information ripping to FLAC, ‘Track 12’ to ‘Ultimate Punk And New Wave [CD3x5]\12 The Slits – Typical Girls.flac’
Track 12: Ripped LBA 153563 to 171132 (3:54) in 0:30. Filename: Ultimate Punk And New Wave [CD3x5]\12 The Slits – Typical Girls._
Secure [Pass 1 & 2]
CRC32: EDBCADE2 AccurateRip CRC: 2B9BE838 (CRCv2) [DiscID: 020-002ca112-02936f09-2e0e9f14-12]

Information ripping to FLAC, ‘Track 13’ to ‘Ultimate Punk And New Wave [CD3x5]\13 Alternative TV – Action Time Vision.flac’
Track 13: Ripped LBA 171132 to 182547 (2:32) in 0:20. Filename: Ultimate Punk And New Wave [CD3x5]\13 Alternative TV – Action Time Vision._
Secure [Pass 1 & 2]
CRC32: C86C746E AccurateRip CRC: 4F83231D (CRCv2) [DiscID: 020-002ca112-02936f09-2e0e9f14-13]

Information ripping to FLAC, ‘Track 14’ to ‘Ultimate Punk And New Wave [CD3x5]\14 The Boys – Kamikaze.flac’
Track 14: Ripped LBA 182547 to 199900 (3:51) in 0:28. Filename: Ultimate Punk And New Wave [CD3x5]\14 The Boys – Kamikaze._
Secure [Pass 1 & 2]
CRC32: 6888DDC1 AccurateRip CRC: 7D2909ED (CRCv2) [DiscID: 020-002ca112-02936f09-2e0e9f14-14]

Information ripping to FLAC, ‘Track 15’ to ‘Ultimate Punk And New Wave [CD3x5]\15 Wreckless Eric – Whole Wide World.flac’
Track 15: Ripped LBA 199900 to 212751 (2:51) in 0:21. Filename: Ultimate Punk And New Wave [CD3x5]\15 Wreckless Eric – Whole Wide World._
Secure [Pass 1 & 2]
CRC32: 733E88C4 AccurateRip CRC: AB743183 (CRCv2) [DiscID: 020-002ca112-02936f09-2e0e9f14-15]

Information ripping to FLAC, ‘Track 16’ to ‘Ultimate Punk And New Wave [CD3x5]\16 Patrick Fitzgerald – Safety Pin Stuck In My Heart.flac’
Track 16: Ripped LBA 212751 to 224716 (2:39) in 0:19. Filename: Ultimate Punk And New Wave [CD3x5]\16 Patrick Fitzgerald – Safety Pin Stuck In My Heart._
Secure [Pass 1 & 2]
CRC32: A5DCABF2 AccurateRip CRC: B538ECF5 (CRCv2) [DiscID: 020-002ca112-02936f09-2e0e9f14-16]

Information ripping to FLAC, ‘Track 17’ to ‘Ultimate Punk And New Wave [CD3x5]\17 The Ruts – In A Rut.flac’
Track 17: Ripped LBA 224716 to 240831 (3:34) in 0:25. Filename: Ultimate Punk And New Wave [CD3x5]\17 The Ruts – In A Rut._
Secure [Pass 1 & 2]
CRC32: 06CB3AA6 AccurateRip CRC: 8DB23836 (CRCv2) [DiscID: 020-002ca112-02936f09-2e0e9f14-17]

Information ripping to FLAC, ‘Track 18’ to ‘Ultimate Punk And New Wave [CD3x5]\18 The Professionals – Just Another Dream.flac’
Track 18: Ripped LBA 240831 to 254590 (3:03) in 0:21. Filename: Ultimate Punk And New Wave [CD3x5]\18 The Professionals – Just Another Dream._
Secure [Pass 1 & 2]
CRC32: 997F6095 AccurateRip CRC: 40CDA41B (CRCv2) [DiscID: 020-002ca112-02936f09-2e0e9f14-18]

Information ripping to FLAC, ‘Track 19’ to ‘Ultimate Punk And New Wave [CD3x5]\19 Skids – Sweet Suburbia.flac’
Track 19: Ripped LBA 254590 to 265457 (2:24) in 0:17. Filename: Ultimate Punk And New Wave [CD3x5]\19 Skids – Sweet Suburbia._
Secure [Pass 1 & 2]
CRC32: 859304BB AccurateRip CRC: C6C29955 (CRCv2) [DiscID: 020-002ca112-02936f09-2e0e9f14-19]

Information ripping to FLAC, ‘Track 20’ to ‘Ultimate Punk And New Wave [CD3x5]\20 The Fall – Totally Wired.flac’
Track 20: Ripped LBA 265457 to 280763 (3:24) in 0:23. Filename: Ultimate Punk And New Wave [CD3x5]\20 The Fall – Totally Wired._
Secure [Pass 1 & 2]
CRC32: 51097CDA AccurateRip CRC: 8DED351F (CRCv2) [DiscID: 020-002ca112-02936f09-2e0e9f14-20]

Information ripping to FLAC, ‘Track 1’ to ‘Ultimate Punk And New Wave [CD4x5]\01 Sham 69 – Hersham Boys.flac’
Track 1: Ripped LBA 0 to 15306 (3:24) in 0:47. Filename: Ultimate Punk And New Wave [CD4x5]\01 Sham 69 – Hersham Boys._
Secure [Pass 1 & 2]
CRC32: 9039E7CA AccurateRip CRC: 4C872B71 (CRCv2) [DiscID: 020-0027d38b-0244024b-110ccc14-1]

Information ripping to FLAC, ‘Track 2’ to ‘Ultimate Punk And New Wave [CD4x5]\02 The Professionals – 1-2-3.flac’
Track 2: Ripped LBA 15306 to 28579 (2:56) in 0:36. Filename: Ultimate Punk And New Wave [CD4x5]\02 The Professionals – 1-2-3._
Secure [Pass 1 & 2]
CRC32: A0D45B77 AccurateRip CRC: 815E6E64 (CRCv2) [DiscID: 020-0027d38b-0244024b-110ccc14-2]

Information ripping to FLAC, ‘Track 3’ to ‘Ultimate Punk And New Wave [CD4x5]\03 Buzzcocks – What Do I Get.flac’
Track 3: Ripped LBA 28579 to 41687 (2:54) in 0:33. Filename: Ultimate Punk And New Wave [CD4x5]\03 Buzzcocks – What Do I Get._
Secure [Pass 1 & 2]
CRC32: EFDD3D19 AccurateRip CRC: 45F70DCB (CRCv2) [DiscID: 020-0027d38b-0244024b-110ccc14-3]

Information ripping to FLAC, ‘Track 4’ to ‘Ultimate Punk And New Wave [CD4x5]\04 Spizz Energi – Where’s Captain Kirk.flac’
Track 4: Ripped LBA 41687 to 51937 (2:16) in 0:25. Filename: Ultimate Punk And New Wave [CD4x5]\04 Spizz Energi – Where’s Captain Kirk._
Secure [Pass 1 & 2]
CRC32: 5D2FB8BB AccurateRip CRC: 77A06F65 (CRCv2) [DiscID: 020-0027d38b-0244024b-110ccc14-4]

Information ripping to FLAC, ‘Track 5’ to ‘Ultimate Punk And New Wave [CD4x5]\05 The Damned – Love Song.flac’
Track 5: Ripped LBA 51937 to 61198 (2:03) in 0:23. Filename: Ultimate Punk And New Wave [CD4x5]\05 The Damned – Love Song._
Secure [Pass 1 & 2]
CRC32: C1941F9F AccurateRip CRC: 3E9F0047 (CRCv2) [DiscID: 020-0027d38b-0244024b-110ccc14-5]

Information ripping to FLAC, ‘Track 6’ to ‘Ultimate Punk And New Wave [CD4x5]\06 Penetration – Danger Signs.flac’
Track 6: Ripped LBA 61198 to 72257 (2:27) in 0:25. Filename: Ultimate Punk And New Wave [CD4x5]\06 Penetration – Danger Signs._
Secure [Pass 1 & 2]
CRC32: 1D8992E3 AccurateRip CRC: BA1F949D (CRCv2) [DiscID: 020-0027d38b-0244024b-110ccc14-6]

Information ripping to FLAC, ‘Track 7’ to ‘Ultimate Punk And New Wave [CD4x5]\07 Theatre Of Hate – Do You Believe In The Westworld.flac’
Track 7: Ripped LBA 72257 to 89315 (3:47) in 0:36. Filename: Ultimate Punk And New Wave [CD4x5]\07 Theatre Of Hate – Do You Believe In The Westworld._
Secure [Pass 1 & 2]
CRC32: 46310FD7 AccurateRip CRC: 7C95AB52 (CRCv2) [DiscID: 020-0027d38b-0244024b-110ccc14-7]

Information ripping to FLAC, ‘Track 8’ to ‘Ultimate Punk And New Wave [CD4x5]\08 Toy Dolls – Nellie The Elephant.flac’
Track 8: Ripped LBA 89315 to 102809 (2:59) in 0:27. Filename: Ultimate Punk And New Wave [CD4x5]\08 Toy Dolls – Nellie The Elephant._
Secure [Pass 1 & 2]
CRC32: 4B0AAEC2 AccurateRip CRC: EE9485AB (CRCv2) [DiscID: 020-0027d38b-0244024b-110ccc14-8]

Information ripping to FLAC, ‘Track 9’ to ‘Ultimate Punk And New Wave [CD4x5]\09 The Exploited – Dead Cities.flac’
Track 9: Ripped LBA 102809 to 111279 (1:52) in 0:18. Filename: Ultimate Punk And New Wave [CD4x5]\09 The Exploited – Dead Cities._
Secure [Pass 1 & 2]
CRC32: A3B6F21C AccurateRip CRC: 35569009 (CRCv2) [DiscID: 020-0027d38b-0244024b-110ccc14-9]

Information ripping to FLAC, ‘Track 10’ to ‘Ultimate Punk And New Wave [CD4x5]\10 Angelic Upstarts – The Murder Of Liddle Towers.flac’
Track 10: Ripped LBA 111279 to 132109 (4:37) in 0:38. Filename: Ultimate Punk And New Wave [CD4x5]\10 Angelic Upstarts – The Murder Of Liddle Towers._
Secure [Pass 1 & 2]
CRC32: 4C7F6AF8 AccurateRip CRC: F376AB47 (CRCv2) [DiscID: 020-0027d38b-0244024b-110ccc14-10]

Information ripping to FLAC, ‘Track 11’ to ‘Ultimate Punk And New Wave [CD4x5]\11 Cockney Rejects – Flares N Slippers.flac’
Track 11: Ripped LBA 132109 to 139363 (1:36) in 0:15. Filename: Ultimate Punk And New Wave [CD4x5]\11 Cockney Rejects – Flares N Slippers._
Secure [Pass 1 & 2]
CRC32: 8A528574 AccurateRip CRC: 02C150BD (CRCv2) [DiscID: 020-0027d38b-0244024b-110ccc14-11]

Information ripping to FLAC, ‘Track 12’ to ‘Ultimate Punk And New Wave [CD4x5]\12 Anti Nowhere League – I Hate People.flac’
Track 12: Ripped LBA 139363 to 150076 (2:22) in 0:20. Filename: Ultimate Punk And New Wave [CD4x5]\12 Anti Nowhere League – I Hate People._
Secure [Pass 1 & 2]
CRC32: 451CAC9B AccurateRip CRC: 551A3C2C (CRCv2) [DiscID: 020-0027d38b-0244024b-110ccc14-12]

Information ripping to FLAC, ‘Track 13’ to ‘Ultimate Punk And New Wave [CD4x5]\13 UK Subs – C.I.D..flac’
Track 13: Ripped LBA 150076 to 158712 (1:55) in 0:17. Filename: Ultimate Punk And New Wave [CD4x5]\13 UK Subs – C.I.D.._
Secure [Pass 1 & 2]
CRC32: 87F079DB AccurateRip CRC: 2DFC88F2 (CRCv2) [DiscID: 020-0027d38b-0244024b-110ccc14-13]

Information ripping to FLAC, ‘Track 14’ to ‘Ultimate Punk And New Wave [CD4x5]\14 G.B.H. – No Survivors.flac’
Track 14: Ripped LBA 158712 to 170384 (2:35) in 0:21. Filename: Ultimate Punk And New Wave [CD4x5]\14 G.B.H. – No Survivors._
Secure [Pass 1 & 2]
CRC32: D68CA835 AccurateRip CRC: 5F3E3721 (CRCv2) [DiscID: 020-0027d38b-0244024b-110ccc14-14]

Information ripping to FLAC, ‘Track 15’ to ‘Ultimate Punk And New Wave [CD4x5]\15 Discharge – Never Again.flac’
Track 15: Ripped LBA 170384 to 180921 (2:20) in 0:19. Filename: Ultimate Punk And New Wave [CD4x5]\15 Discharge – Never Again._
Secure [Pass 1 & 2]
CRC32: 07F3B48C AccurateRip CRC: 95CB3671 (CRCv2) [DiscID: 020-0027d38b-0244024b-110ccc14-15]

Information ripping to FLAC, ‘Track 16’ to ‘Ultimate Punk And New Wave [CD4x5]\16 Adicts – Bad Boy.flac’
Track 16: Ripped LBA 180921 to 196379 (3:26) in 0:25. Filename: Ultimate Punk And New Wave [CD4x5]\16 Adicts – Bad Boy._
Secure [Pass 1 & 2]
CRC32: 79E3C614 AccurateRip CRC: 72454D83 (CRCv2) [DiscID: 020-0027d38b-0244024b-110ccc14-16]

Information ripping to FLAC, ‘Track 17’ to ‘Ultimate Punk And New Wave [CD4x5]\17 Anti Pasti – Six Guns.flac’
Track 17: Ripped LBA 196379 to 212713 (3:37) in 0:26. Filename: Ultimate Punk And New Wave [CD4x5]\17 Anti Pasti – Six Guns._
Secure [Pass 1 & 2]
CRC32: F081B5B2 AccurateRip CRC: A3D793C0 (CRCv2) [DiscID: 020-0027d38b-0244024b-110ccc14-17]

Information ripping to FLAC, ‘Track 18’ to ‘Ultimate Punk And New Wave [CD4x5]\18 Blitz – Never Surrender.flac’
Track 18: Ripped LBA 212713 to 219621 (1:32) in 0:13. Filename: Ultimate Punk And New Wave [CD4x5]\18 Blitz – Never Surrender._
Secure [Pass 1 & 2]
CRC32: 3C21907E AccurateRip CRC: 5F48D333 (CRCv2) [DiscID: 020-0027d38b-0244024b-110ccc14-18]

Information ripping to FLAC, ‘Track 19’ to ‘Ultimate Punk And New Wave [CD4x5]\19 Chron Gen – Jet Boy Jet Girl.flac’
Track 19: Ripped LBA 219621 to 229671 (2:14) in 0:17. Filename: Ultimate Punk And New Wave [CD4x5]\19 Chron Gen – Jet Boy Jet Girl._
Secure [Pass 1 & 2]
CRC32: 3385CCF6 AccurateRip CRC: BFA731CA (CRCv2) [DiscID: 020-0027d38b-0244024b-110ccc14-19]

Information ripping to FLAC, ‘Track 20’ to ‘Ultimate Punk And New Wave [CD4x5]\20 The Crack – Don’t You Ever Let Me Down.flac’
Track 20: Ripped LBA 229671 to 245743 (3:34) in 0:25. Filename: Ultimate Punk And New Wave [CD4x5]\20 The Crack – Don’t You Ever Let Me Down._
Secure [Pass 1 & 2]
CRC32: 47A246DC AccurateRip CRC: 4AAB451C (CRCv2) [DiscID: 020-0027d38b-0244024b-110ccc14-20]

Information ripping to FLAC, ‘Track 1’ to ‘Ultimate Punk And New Wave [CD5x5]\01 The Human League – Empire State Human.flac’
Track 1: Ripped LBA 0 to 14534 (3:13) in 0:40. Filename: Ultimate Punk And New Wave [CD5x5]\01 The Human League – Empire State Human._
Secure [Pass 1 & 2]
CRC32: 71F6AC29 AccurateRip CRC: 7FE0E44A (CRCv2) [DiscID: 020-002f8c0f-02ae38e8-100ec814-1]

Information ripping to FLAC, ‘Track 2’ to ‘Ultimate Punk And New Wave [CD5x5]\02 Simple Minds – The American.flac’
Track 2: Ripped LBA 14534 to 30641 (3:34) in 0:40. Filename: Ultimate Punk And New Wave [CD5x5]\02 Simple Minds – The American._
Secure [Pass 1 & 2]
CRC32: 5B0C90B5 AccurateRip CRC: 3380D640 (CRCv2) [DiscID: 020-002f8c0f-02ae38e8-100ec814-2]

Information ripping to FLAC, ‘Track 3’ to ‘Ultimate Punk And New Wave [CD5x5]\03 The Cure – A Forest.flac’
Track 3: Ripped LBA 30641 to 52723 (4:54) in 0:50. Filename: Ultimate Punk And New Wave [CD5x5]\03 The Cure – A Forest._
Secure [Pass 1 & 2]
CRC32: CE3B583D AccurateRip CRC: 4CA8B2FD (CRCv2) [DiscID: 020-002f8c0f-02ae38e8-100ec814-3]

Information ripping to FLAC, ‘Track 4’ to ‘Ultimate Punk And New Wave [CD5x5]\04 Jona Lewie – You’ll Always Find Me In The Kitchen At Parties.flac’
Track 4: Ripped LBA 52723 to 66311 (3:01) in 0:30. Filename: Ultimate Punk And New Wave [CD5x5]\04 Jona Lewie – You’ll Always Find Me In The Kitchen At Parties._
Secure [Pass 1 & 2]
CRC32: BB8A881F AccurateRip CRC: D62064A0 (CRCv2) [DiscID: 020-002f8c0f-02ae38e8-100ec814-4]

Information ripping to FLAC, ‘Track 5’ to ‘Ultimate Punk And New Wave [CD5x5]\05 Japan – Don’t Rain On My Parade.flac’
Track 5: Ripped LBA 66311 to 79451 (2:55) in 0:28. Filename: Ultimate Punk And New Wave [CD5x5]\05 Japan – Don’t Rain On My Parade._
Secure [Pass 1 & 2]
CRC32: 447EC8A6 AccurateRip CRC: 67B0A8B1 (CRCv2) [DiscID: 020-002f8c0f-02ae38e8-100ec814-5]

Information ripping to FLAC, ‘Track 6’ to ‘Ultimate Punk And New Wave [CD5x5]\06 The Jags – Back Of My Hand.flac’
Track 6: Ripped LBA 79451 to 94470 (3:20) in 0:30. Filename: Ultimate Punk And New Wave [CD5x5]\06 The Jags – Back Of My Hand._
Secure [Pass 1 & 2]
CRC32: 2A55D4AD AccurateRip CRC: D196BB1F (CRCv2) [DiscID: 020-002f8c0f-02ae38e8-100ec814-6]

Information ripping to FLAC, ‘Track 7’ to ‘Ultimate Punk And New Wave [CD5x5]\07 Joe Jackson – I’m The Man.flac’
Track 7: Ripped LBA 94470 to 112325 (3:58) in 0:33. Filename: Ultimate Punk And New Wave [CD5x5]\07 Joe Jackson – I’m The Man._
Secure [Pass 1 & 2]
CRC32: 0F7CDDA4 AccurateRip CRC: 9EA69AEB (CRCv2) [DiscID: 020-002f8c0f-02ae38e8-100ec814-7]

Information ripping to FLAC, ‘Track 8’ to ‘Ultimate Punk And New Wave [CD5x5]\08 Tenpole Tudor – Wunderbar.flac’
Track 8: Ripped LBA 112325 to 125908 (3:01) in 0:25. Filename: Ultimate Punk And New Wave [CD5x5]\08 Tenpole Tudor – Wunderbar._
Secure [Pass 1 & 2]
CRC32: D5A148A0 AccurateRip CRC: BFB093CA (CRCv2) [DiscID: 020-002f8c0f-02ae38e8-100ec814-8]

Information ripping to FLAC, ‘Track 9’ to ‘Ultimate Punk And New Wave [CD5x5]\09 Mobiles – Amour Amour.flac’
Track 9: Ripped LBA 125908 to 144631 (4:09) in 0:32. Filename: Ultimate Punk And New Wave [CD5x5]\09 Mobiles – Amour Amour._
Secure [Pass 1 & 2]
CRC32: 78B8FC36 AccurateRip CRC: 2AFD6956 (CRCv2) [DiscID: 020-002f8c0f-02ae38e8-100ec814-9]

Information ripping to FLAC, ‘Track 10’ to ‘Ultimate Punk And New Wave [CD5x5]\10 Mo-Dettes – Paint It Black.flac’
Track 10: Ripped LBA 144631 to 154962 (2:17) in 0:19. Filename: Ultimate Punk And New Wave [CD5x5]\10 Mo-Dettes – Paint It Black._
Secure [Pass 1 & 2]
CRC32: FB1F55DA AccurateRip CRC: C68027DD (CRCv2) [DiscID: 020-002f8c0f-02ae38e8-100ec814-10]

Information ripping to FLAC, ‘Track 11’ to ‘Ultimate Punk And New Wave [CD5x5]\11 Squeeze – Goodbye Girl.flac’
Track 11: Ripped LBA 154962 to 168520 (3:00) in 0:23. Filename: Ultimate Punk And New Wave [CD5x5]\11 Squeeze – Goodbye Girl._
Secure [Pass 1 & 2]
CRC32: 13C924F3 AccurateRip CRC: 0F650B23 (CRCv2) [DiscID: 020-002f8c0f-02ae38e8-100ec814-11]

Information ripping to FLAC, ‘Track 12’ to ‘Ultimate Punk And New Wave [CD5x5]\12 Any Trouble – Yesterday’s Love.flac’
Track 12: Ripped LBA 168520 to 181190 (2:48) in 0:21. Filename: Ultimate Punk And New Wave [CD5x5]\12 Any Trouble – Yesterday’s Love._
Secure [Pass 1 & 2]
CRC32: 795C6223 AccurateRip CRC: 4F714577 (CRCv2) [DiscID: 020-002f8c0f-02ae38e8-100ec814-12]

Information ripping to FLAC, ‘Track 13’ to ‘Ultimate Punk And New Wave [CD5x5]\13 The Yachts – Suffice To Say.flac’
Track 13: Ripped LBA 181190 to 195786 (3:14) in 0:23. Filename: Ultimate Punk And New Wave [CD5x5]\13 The Yachts – Suffice To Say._
Secure [Pass 1 & 2]
CRC32: 8DC9B31A AccurateRip CRC: B248665D (CRCv2) [DiscID: 020-002f8c0f-02ae38e8-100ec814-13]

Information ripping to FLAC, ‘Track 14’ to ‘Ultimate Punk And New Wave [CD5x5]\14 Johnny And The Self Abusers – Saints And Sinners.flac’
Track 14: Ripped LBA 195786 to 204118 (1:51) in 0:14. Filename: Ultimate Punk And New Wave [CD5x5]\14 Johnny And The Self Abusers – Saints And Sinners._
Secure [Pass 1 & 2]
CRC32: E8451322 AccurateRip CRC: E0938F35 (CRCv2) [DiscID: 020-002f8c0f-02ae38e8-100ec814-14]

Information ripping to FLAC, ‘Track 15’ to ‘Ultimate Punk And New Wave [CD5x5]\15 Subs – Gimme Your Heart.flac’
Track 15: Ripped LBA 204118 to 217813 (3:02) in 0:22. Filename: Ultimate Punk And New Wave [CD5x5]\15 Subs – Gimme Your Heart._
Secure [Pass 1 & 2]
CRC32: 871D30AF AccurateRip CRC: 09CFA4AD (CRCv2) [DiscID: 020-002f8c0f-02ae38e8-100ec814-15]

Information ripping to FLAC, ‘Track 16’ to ‘Ultimate Punk And New Wave [CD5x5]\16 Radio Stars – Nervous Wreck.flac’
Track 16: Ripped LBA 217813 to 226759 (1:59) in 0:15. Filename: Ultimate Punk And New Wave [CD5x5]\16 Radio Stars – Nervous Wreck._
Secure [Pass 1 & 2]
CRC32: 7B3B13AD AccurateRip CRC: CCBA5BA5 (CRCv2) [DiscID: 020-002f8c0f-02ae38e8-100ec814-16]

Information ripping to FLAC, ‘Track 17’ to ‘Ultimate Punk And New Wave [CD5x5]\17 The Freshies – I’m In Love With A Girl On A Certain Manchester Megastore Checkout Desk.flac’
Track 17: Ripped LBA 226759 to 239661 (2:52) in 0:20. Filename: Ultimate Punk And New Wave [CD5x5]\17 The Freshies – I’m In Love With A Girl On A Certain Manchester Megastore Checkout Desk._
Secure [Pass 1 & 2]
CRC32: F42CD47F AccurateRip CRC: C49B568F (CRCv2) [DiscID: 020-002f8c0f-02ae38e8-100ec814-17]

Information ripping to FLAC, ‘Track 18’ to ‘Ultimate Punk And New Wave [CD5x5]\18 The Planets – Lines.flac’
Track 18: Ripped LBA 239661 to 254874 (3:22) in 0:22. Filename: Ultimate Punk And New Wave [CD5x5]\18 The Planets – Lines._
Secure [Pass 1 & 2]
CRC32: F89F697F AccurateRip CRC: D5B51CA0 (CRCv2) [DiscID: 020-002f8c0f-02ae38e8-100ec814-18]

Information ripping to FLAC, ‘Track 19’ to ‘Ultimate Punk And New Wave [CD5x5]\19 Small Ads – Small Ads.flac’
Track 19: Ripped LBA 254874 to 267504 (2:48) in 0:19. Filename: Ultimate Punk And New Wave [CD5x5]\19 Small Ads – Small Ads._
Secure [Pass 1 & 2]
CRC32: BFD3B64E AccurateRip CRC: 23EB36F9 (CRCv2) [DiscID: 020-002f8c0f-02ae38e8-100ec814-19]

Information ripping to FLAC, ‘Track 20’ to ‘Ultimate Punk And New Wave [CD5x5]\20 Toyah – IEYA.flac’
Track 20: Ripped LBA 267504 to 283866 (3:38) in 0:23. Filename: Ultimate Punk And New Wave [CD5x5]\20 Toyah – IEYA._
Secure [Pass 1 & 2]
CRC32: EFA1FA20 AccurateRip CRC: 17C8B526 (CRCv2) [DiscID: 020-002f8c0f-02ae38e8-100ec814-20]

REM COMMENT “TBox”
FILE “01 The Jam – The Modern World.flac” WAVE
TRACK 01 AUDIO
INDEX 01 00:00:00
FILE “02 The Damned – Neat Neat Neat.flac” WAVE
TRACK 02 AUDIO
INDEX 01 00:00:00
FILE “03 Skids – Into The Valley.flac” WAVE
TRACK 03 AUDIO
INDEX 01 00:00:00
FILE “04 The Ruts – Staring At the Rude Boys.flac” WAVE
TRACK 04 AUDIO
INDEX 01 00:00:00
FILE “05 X-Ray Spex – Germ Free Adolescents.flac” WAVE
TRACK 05 AUDIO
INDEX 01 00:00:00
FILE “06 The Boomtown Rats – The 4Th Form.flac” WAVE
TRACK 06 AUDIO
INDEX 01 00:00:00
FILE “07 Joe Jackson – Going Out With Him.flac” WAVE
TRACK 07 AUDIO
INDEX 01 00:00:00
FILE “08 Simple Minds – Life In A Day.flac” WAVE
TRACK 08 AUDIO
INDEX 01 00:00:00
FILE “09 Tenpole Tudor – Swords Of A Thousand Men.flac” WAVE
TRACK 09 AUDIO
INDEX 01 00:00:00
FILE “10 The Motors – Airport.flac” WAVE
TRACK 10 AUDIO
INDEX 01 00:00:00
FILE “11 Devo – I Can’t Get Me No Satisfaction.flac” WAVE
TRACK 11 AUDIO
INDEX 01 00:00:00
FILE “12 Eddie Hot Rods – Teenage Depression.flac” WAVE
TRACK 12 AUDIO
INDEX 01 00:00:00
FILE “13 Magazine – Touch And Go.flac” WAVE
TRACK 13 AUDIO
INDEX 01 00:00:00
FILE “14 Angelic Upstarts – Woman In Disguise.flac” WAVE
TRACK 14 AUDIO
INDEX 01 00:00:00
FILE “15 Kilburn And The High Roads – Billy Bentley.flac” WAVE
TRACK 15 AUDIO
INDEX 01 00:00:00
FILE “16 The Fall – Kicker Conspiracy.flac” WAVE
TRACK 16 AUDIO
INDEX 01 00:00:00
FILE “17 Killing Joke – Follow The Leaders.flac” WAVE
TRACK 17 AUDIO
INDEX 01 00:00:00
FILE “18 The Slits – Through The Grapevine.flac” WAVE
TRACK 18 AUDIO
INDEX 01 00:00:00
FILE “19 The Members – Solitary Confinement.flac” WAVE
TRACK 19 AUDIO
INDEX 01 00:00:00
FILE “20 The Dickies – Nights In White Satin.flac” WAVE
TRACK 20 AUDIO
INDEX 01 00:00:00

REM COMMENT “TBox”
FILE “01 The Members – Sound Of The Suburbs.flac” WAVE
TRACK 01 AUDIO
INDEX 01 00:00:00
FILE “02 The Ruts – Babylons Burning.flac” WAVE
TRACK 02 AUDIO
INDEX 01 00:00:00
FILE “03 The Tubes – Prime Time.flac” WAVE
TRACK 03 AUDIO
INDEX 01 00:00:00
FILE “04 Jilted John – Jilted John.flac” WAVE
TRACK 04 AUDIO
INDEX 01 00:00:00
FILE “05 The Dickies – Banana Splits.flac” WAVE
TRACK 05 AUDIO
INDEX 01 00:00:00
FILE “06 Dead Kennedys – Holiday In Cambodia.flac” WAVE
TRACK 06 AUDIO
INDEX 01 00:00:00
FILE “07 The Damned – Smash It Up.flac” WAVE
TRACK 07 AUDIO
INDEX 01 00:00:00
FILE “08 Anti Nowhere League – Streets Of London.flac” WAVE
TRACK 08 AUDIO
INDEX 01 00:00:00
FILE “09 Graham Parker And The Rumour – The Night.flac” WAVE
TRACK 09 AUDIO
INDEX 01 00:00:00
FILE “10 Jonathan Richman Modern Lovers – Roadrunner.flac” WAVE
TRACK 10 AUDIO
INDEX 01 00:00:00
FILE “11 Squeeze – Take Me I’m Yours.flac” WAVE
TRACK 11 AUDIO
INDEX 01 00:00:00
FILE “12 The Cure – Jumping Someone Else’s Train.flac” WAVE
TRACK 12 AUDIO
INDEX 01 00:00:00
FILE “13 Japan – The Unconventional.flac” WAVE
TRACK 13 AUDIO
INDEX 01 00:00:00
FILE “14 The Regents – 7Teen.flac” WAVE
TRACK 14 AUDIO
INDEX 01 00:00:00
FILE “15 The Mobiles – Drowning In Berlin.flac” WAVE
TRACK 15 AUDIO
INDEX 01 00:00:00
FILE “16 The Passions – A German Film Star.flac” WAVE
TRACK 16 AUDIO
INDEX 01 00:00:00
FILE “17 China Crisis – African and White.flac” WAVE
TRACK 17 AUDIO
INDEX 01 00:00:00
FILE “18 Heaven 17 – Fascist Groove Thang.flac” WAVE
TRACK 18 AUDIO
INDEX 01 00:00:00
FILE “19 The Human League – Being Boiled.flac” WAVE
TRACK 19 AUDIO
INDEX 01 00:00:00
FILE “20 OMD – Electricity.flac” WAVE
TRACK 20 AUDIO
INDEX 01 00:00:00

REM COMMENT “TBox”
FILE “01 The Buzzcocks – Ever Fallen In Love.flac” WAVE
TRACK 01 AUDIO
INDEX 01 00:00:00
FILE “02 The Damned – New Rose.flac” WAVE
TRACK 02 AUDIO
INDEX 01 00:00:00
FILE “03 The Jam – In The City.flac” WAVE
TRACK 03 AUDIO
INDEX 01 00:00:00
FILE “04 Sham 69 – If The Kids Are United.flac” WAVE
TRACK 04 AUDIO
INDEX 01 00:00:00
FILE “05 X-Ray Spex – Identity.flac” WAVE
TRACK 05 AUDIO
INDEX 01 00:00:00
FILE “06 Magazine – Shot By Both Sides.flac” WAVE
TRACK 06 AUDIO
INDEX 01 00:00:00
FILE “07 Eddie And The Hot Rods – Do Anything.flac” WAVE
TRACK 07 AUDIO
INDEX 01 00:00:00
FILE “08 The Motors – Forget About You.flac” WAVE
TRACK 08 AUDIO
INDEX 01 00:00:00
FILE “09 Boomtown Rats – Looking After No 1.flac” WAVE
TRACK 09 AUDIO
INDEX 01 00:00:00
FILE “10 Penetration – Don’t Dictate.flac” WAVE
TRACK 10 AUDIO
INDEX 01 00:00:00
FILE “11 Devo – Come Back Jonee.flac” WAVE
TRACK 11 AUDIO
INDEX 01 00:00:00
FILE “12 The Slits – Typical Girls.flac” WAVE
TRACK 12 AUDIO
INDEX 01 00:00:00
FILE “13 Alternative TV – Action Time Vision.flac” WAVE
TRACK 13 AUDIO
INDEX 01 00:00:00
FILE “14 The Boys – Kamikaze.flac” WAVE
TRACK 14 AUDIO
INDEX 01 00:00:00
FILE “15 Wreckless Eric – Whole Wide World.flac” WAVE
TRACK 15 AUDIO
INDEX 01 00:00:00
FILE “16 Patrick Fitzgerald – Stuck In My Heart.flac” WAVE
TRACK 16 AUDIO
INDEX 01 00:00:00
FILE “17 The Ruts – In A Rut.flac” WAVE
TRACK 17 AUDIO
INDEX 01 00:00:00
FILE “18 The Professionals – Just Another Dream.flac” WAVE
TRACK 18 AUDIO
INDEX 01 00:00:00
FILE “19 Skids – Sweet Suburbia.flac” WAVE
TRACK 19 AUDIO
INDEX 01 00:00:00
FILE “20 The Fall – Totally Wired.flac” WAVE
TRACK 20 AUDIO
INDEX 01 00:00:00

REM COMMENT “TBox”
FILE “01 Sham 69 – Hersham Boys.flac” WAVE
TRACK 01 AUDIO
INDEX 01 00:00:00
FILE “02 The Professionals – 1-2-3.flac” WAVE
TRACK 02 AUDIO
INDEX 01 00:00:00
FILE “03 Buzzcocks – What Do I Get.flac” WAVE
TRACK 03 AUDIO
INDEX 01 00:00:00
FILE “04 Spizz Energi – Where’s Captain Kirk.flac” WAVE
TRACK 04 AUDIO
INDEX 01 00:00:00
FILE “05 The Damned – Love Song.flac” WAVE
TRACK 05 AUDIO
INDEX 01 00:00:00
FILE “06 Penetration – Danger Signs.flac” WAVE
TRACK 06 AUDIO
INDEX 01 00:00:00
FILE “07 Theatre Of Hate – The Westworld.flac” WAVE
TRACK 07 AUDIO
INDEX 01 00:00:00
FILE “08 Toy Dolls – Nellie The Elephant.flac” WAVE
TRACK 08 AUDIO
INDEX 01 00:00:00
FILE “09 The Exploited – Dead Cities.flac” WAVE
TRACK 09 AUDIO
INDEX 01 00:00:00
FILE “10 Angelic Upstarts – Liddle Towers.flac” WAVE
TRACK 10 AUDIO
INDEX 01 00:00:00
FILE “11 Cockney Rejects – Flares N Slippers.flac” WAVE
TRACK 11 AUDIO
INDEX 01 00:00:00
FILE “12 Anti Nowhere League – I Hate People.flac” WAVE
TRACK 12 AUDIO
INDEX 01 00:00:00
FILE “13 UK Subs – C.I.D..flac” WAVE
TRACK 13 AUDIO
INDEX 01 00:00:00
FILE “14 G.B.H. – No Survivors.flac” WAVE
TRACK 14 AUDIO
INDEX 01 00:00:00
FILE “15 Discharge – Never Again.flac” WAVE
TRACK 15 AUDIO
INDEX 01 00:00:00
FILE “16 Adicts – Bad Boy.flac” WAVE
TRACK 16 AUDIO
INDEX 01 00:00:00
FILE “17 Anti Pasti – Six Guns.flac” WAVE
TRACK 17 AUDIO
INDEX 01 00:00:00
FILE “18 Blitz – Never Surrender.flac” WAVE
TRACK 18 AUDIO
INDEX 01 00:00:00
FILE “19 Chron Gen – Jet Boy Jet Girl.flac” WAVE
TRACK 19 AUDIO
INDEX 01 00:00:00
FILE “20 The Crack – Let Me Down.flac” WAVE
TRACK 20 AUDIO
INDEX 01 00:00:00


Leave a Reply

Your email address will not be published. Required fields are marked *

This site uses Akismet to reduce spam. Learn how your comment data is processed.