Various Artists – Punk Goes Pop 5




Artist: Various Artists
Year: 2012
Genre: Punk
Notes: Discogs
Add. Notes:
Cover incl.: Yes
Encoder: FLAC
Bitrate: ~900 kBit/s (44.1 kHz/16 Bit/s)
Log & Cue incl.: Yes
Size: 383,98 MB
Password: “slam” (without ” “)


All Downloads/Hosters are compatible

Download 1
Turbobit.net
Rapidgator.net
UploadEver.com
KatFile.com
UsersDrive.com
Download 2
Turbobit.net
Rapidgator.net
UploadEver.com
KatFile.com
UsersDrive.com
Download 3
Turbobit.net
Rapidgator.net
UploadEver.com
KatFile.com
UsersDrive.com

Tracklist:

1 –Memphis May Fire Grenade 3:42
2 –Upon This Dawning Call Me Maybe 3:29
3 –Mayday Parade ft. Vic Fuentes Somebody That I Used 
To Know 3:25
4 –We Came As Romans Glad You Came 3:03
5 –Like Moths To Flames Some Nights 4:41
6 –Breathe Carolina Billie Jean 4:02
7 –Forever The Sickest Kids We Found Love 4:22
8 –Issues (3) Boyfriend 3:16
9 –The Maine Girls Just Want To Have Fun 4:51
10 –Craig Owens Paradise 4:15
11 –Crown The Empire Payphone 3:56
12 –The Word Alive Mercy 5:24
13 –Secrets (12) Ass Back Home 3:49

EAC-Log, CUE-Sheed & NFO:

Click to open spoiler
Exact Audio Copy V1.0 beta 3 from 29. August 2011

EAC extraction logfile from 5. November 2012, 18:47

Various Artists / Punk Goes Pop Volume 5

Used drive : TSSTcorpCDDVDW TS-L633C Adapter: 0 ID: 1

Read mode : Secure
Utilize accurate stream : Yes
Defeat audio cache : Yes
Make use of C2 pointers : No

Read offset correction : 6
Overread into Lead-In and Lead-Out : No
Fill up missing offset samples with silence : Yes
Delete leading and trailing silent blocks : No
Null samples used in CRC calculations : Yes
Used interface : Native Win32 interface for Win NT & 2000
Gap handling : Appended to previous track

Used output format : User Defined Encoder
Selected bitrate : 1024 kBit/s
Quality : High
Add ID3 tag : No
Command line compressor : C:\Program Files (x86)\Exact Audio Copy\Flac\flac.exe
Additional command line options : -8 -V -T “ARTIST=%artist%” -T “TITLE=%title%” -T “ALBUM=%albumtitle%” -T “DATE=%year%” -T “TRACKNUMBER=%tracknr%” -T “GENRE=%genre%” -T “PERFORMER=%albuminterpret%” -T “COMPOSER=%composer%” %haslyrics%–tag-from-file=LYRICS=”%lyricsfile%”%haslyrics% -T “ALBUMARTIST=%albumartist%” -T “DISCNUMBER=%cdnumber%” -T “TOTALDISCS=%totalcds%” -T “TOTALTRACKS=%numtracks%” -T “COMMENT=%comment%” %source% -o %dest%

TOC of the extracted CD

Track | Start | Length | Start sector | End sector
———————————————————
1 | 0:00.00 | 3:41.44 | 0 | 16618
2 | 3:41.44 | 3:28.71 | 16619 | 32289
3 | 7:10.40 | 3:25.24 | 32290 | 47688
4 | 10:35.64 | 3:03.36 | 47689 | 61449
5 | 13:39.25 | 4:40.53 | 61450 | 82502
6 | 18:20.03 | 4:02.26 | 82503 | 100678
7 | 22:22.29 | 4:21.58 | 100679 | 120311
8 | 26:44.12 | 3:15.51 | 120312 | 134987
9 | 29:59.63 | 4:50.59 | 134988 | 156796
10 | 34:50.47 | 4:15.29 | 156797 | 175950
11 | 39:06.01 | 3:55.55 | 175951 | 193630
12 | 43:01.56 | 5:24.33 | 193631 | 217963
13 | 48:26.14 | 3:48.49 | 217964 | 235112

Track 1

Filename D:\EAC\Various Artists – Punk Goes Pop Volume 5 (2012) [FLAC, Lossless]\01 – Memphis May Fire – Grenade.wav

Pre-gap length 0:00:02.00

Peak level 99.1 %
Extraction speed 2.6 X
Track quality 100.0 %
Test CRC F96436C9
Copy CRC F96436C9
Track not present in AccurateRip database
Copy OK

Track 2

Filename D:\EAC\Various Artists – Punk Goes Pop Volume 5 (2012) [FLAC, Lossless]\02 – Upon This dawning – Call Me Maybe.wav

Peak level 99.1 %
Extraction speed 2.8 X
Track quality 100.0 %
Test CRC A557E107
Copy CRC A557E107
Track not present in AccurateRip database
Copy OK

Track 3

Filename D:\EAC\Various Artists – Punk Goes Pop Volume 5 (2012) [FLAC, Lossless]\03 – Mayday Parade – Somebody That I Used To Know (Ft. Vic Fuentes).wav

Peak level 99.1 %
Extraction speed 3.0 X
Track quality 100.0 %
Test CRC DD5FD99C
Copy CRC DD5FD99C
Track not present in AccurateRip database
Copy OK

Track 4

Filename D:\EAC\Various Artists – Punk Goes Pop Volume 5 (2012) [FLAC, Lossless]\04 – We Came As Romans – Glad You Came.wav

Peak level 98.5 %
Extraction speed 3.1 X
Track quality 100.0 %
Test CRC 4A4C5820
Copy CRC 4A4C5820
Track not present in AccurateRip database
Copy OK

Track 5

Filename D:\EAC\Various Artists – Punk Goes Pop Volume 5 (2012) [FLAC, Lossless]\05 – Like Moths To Flames – Some Nights.wav

Peak level 97.3 %
Extraction speed 3.5 X
Track quality 100.0 %
Test CRC 6E6D49E2
Copy CRC 6E6D49E2
Track not present in AccurateRip database
Copy OK

Track 6

Filename D:\EAC\Various Artists – Punk Goes Pop Volume 5 (2012) [FLAC, Lossless]\06 – Breathe Carolina – Billie Jean.wav

Peak level 99.1 %
Extraction speed 3.1 X
Track quality 99.9 %
Test CRC B9E5452F
Copy CRC B9E5452F
Track not present in AccurateRip database
Copy OK

Track 7

Filename D:\EAC\Various Artists – Punk Goes Pop Volume 5 (2012) [FLAC, Lossless]\07 – Forever The Sickest Kids – We Found Love.wav

Peak level 99.1 %
Extraction speed 3.9 X
Track quality 100.0 %
Test CRC 77817EEE
Copy CRC 77817EEE
Track not present in AccurateRip database
Copy OK

Track 8

Filename D:\EAC\Various Artists – Punk Goes Pop Volume 5 (2012) [FLAC, Lossless]\08 – Issues – Boyfriend.wav

Peak level 99.1 %
Extraction speed 3.9 X
Track quality 100.0 %
Test CRC 39DECB9E
Copy CRC 39DECB9E
Track not present in AccurateRip database
Copy OK

Track 9

Filename D:\EAC\Various Artists – Punk Goes Pop Volume 5 (2012) [FLAC, Lossless]\09 – The Maine – Girls Just Want To Have Fun (Ft. Adam Lazzara).wav

Peak level 99.1 %
Extraction speed 4.3 X
Track quality 100.0 %
Test CRC 1C34C3F8
Copy CRC 1C34C3F8
Track not present in AccurateRip database
Copy OK

Track 10

Filename D:\EAC\Various Artists – Punk Goes Pop Volume 5 (2012) [FLAC, Lossless]\10 – Crown The Empire – Payphone.wav

Peak level 99.1 %
Extraction speed 4.4 X
Track quality 100.0 %
Test CRC 742CB541
Copy CRC 742CB541
Track not present in AccurateRip database
Copy OK

Track 11

Filename D:\EAC\Various Artists – Punk Goes Pop Volume 5 (2012) [FLAC, Lossless]\11 – Craig Owens – Paradise.wav

Peak level 99.1 %
Extraction speed 3.8 X
Track quality 99.9 %
Test CRC 3C3077A1
Copy CRC 3C3077A1
Track not present in AccurateRip database
Copy OK

Track 12

Filename D:\EAC\Various Artists – Punk Goes Pop Volume 5 (2012) [FLAC, Lossless]\12 – The Word Alive – Mercy.wav

Peak level 99.1 %
Extraction speed 4.9 X
Track quality 100.0 %
Test CRC B68E666F
Copy CRC B68E666F
Track not present in AccurateRip database
Copy OK

Track 13

Filename D:\EAC\Various Artists – Punk Goes Pop Volume 5 (2012) [FLAC, Lossless]\13 – Secrets – Ass Back Home.wav

Peak level 99.1 %
Extraction speed 4.8 X
Track quality 100.0 %
Test CRC C6F60D6D
Copy CRC C6F60D6D
Track not present in AccurateRip database
Copy OK

None of the tracks are present in the AccurateRip database

No errors occurred

End of status report

—- CUETools DB Plugin V2.1.3

[CTDB TOCID: enHo6iS3uwGeaWGlvKVfFNgJ8Es-] found, Submit result: already submitted
[92b13971] (1/1) Accurately ripped

==== Log checksum 9AF9F6F96DD3F7688A9C9DBC8CB194AE6E7A0D70B1DD6D1563A8F69CE5AC3B5B ====

REM GENRE Compilation
REM DATE 2012
REM DISCID 970C3E0D
REM COMMENT “ExactAudioCopy v1.0b3”
PERFORMER “Various Artists”
TITLE “Punk Goes Pop Volume 5”
FILE “01 – Memphis May Fire – Grenade.wav” WAVE
TRACK 01 AUDIO
TITLE “Grenade”
PERFORMER “Memphis May Fire”
INDEX 01 00:00:00
FILE “02 – Upon This dawning – Call Me Maybe.wav” WAVE
TRACK 02 AUDIO
TITLE “Call Me Maybe”
PERFORMER “Upon This dawning”
INDEX 01 00:00:00
FILE “03 – Mayday Parade – Somebody That I Used To Know (Ft. Vic Fuentes).wav” WAVE
TRACK 03 AUDIO
TITLE “Somebody That I Used To Know (Ft. Vic Fuentes) ”
PERFORMER “Mayday Parade”
INDEX 01 00:00:00
FILE “04 – We Came As Romans – Glad You Came.wav” WAVE
TRACK 04 AUDIO
TITLE “Glad You Came”
PERFORMER “We Came As Romans”
INDEX 01 00:00:00
FILE “05 – Like Moths To Flames – Some Nights.wav” WAVE
TRACK 05 AUDIO
TITLE “Some Nights”
PERFORMER “Like Moths To Flames”
INDEX 01 00:00:00
FILE “06 – Breathe Carolina – Billie Jean.wav” WAVE
TRACK 06 AUDIO
TITLE “Billie Jean”
PERFORMER “Breathe Carolina”
INDEX 01 00:00:00
FILE “07 – Forever The Sickest Kids – We Found Love.wav” WAVE
TRACK 07 AUDIO
TITLE “We Found Love”
PERFORMER “Forever The Sickest Kids”
INDEX 01 00:00:00
FILE “08 – Issues – Boyfriend.wav” WAVE
TRACK 08 AUDIO
TITLE “Boyfriend”
PERFORMER “Issues”
INDEX 01 00:00:00
FILE “09 – The Maine – Girls Just Want To Have Fun (Ft. Adam Lazzara).wav” WAVE
TRACK 09 AUDIO
TITLE “Girls Just Want To Have Fun (Ft. Adam Lazzara)”
PERFORMER “The Maine”
INDEX 01 00:00:00
FILE “10 – Crown The Empire – Payphone.wav” WAVE
TRACK 10 AUDIO
TITLE “Payphone”
PERFORMER “Crown The Empire”
INDEX 01 00:00:00
FILE “11 – Craig Owens – Paradise.wav” WAVE
TRACK 11 AUDIO
TITLE “Paradise”
PERFORMER “Craig Owens”
INDEX 01 00:00:00
FILE “12 – The Word Alive – Mercy.wav” WAVE
TRACK 12 AUDIO
TITLE “Mercy”
PERFORMER “The Word Alive”
INDEX 01 00:00:00
FILE “13 – Secrets – Ass Back Home.wav” WAVE
TRACK 13 AUDIO
TITLE “Ass Back Home”
PERFORMER “Secrets”
INDEX 01 00:00:00


Leave a Reply

Your email address will not be published. Required fields are marked *

This site uses Akismet to reduce spam. Learn how your comment data is processed.