Various Artists – Punk Goes Pop 4 (+ Bonus-CD)




Artist: Various Artists
Year: 2011
Genre: Punk
Notes: Discogs
Add. Notes:
Cover incl.: Yes
Encoder: FLAC
Bitrate: ~1000 kBit/s (44.1 kHz/16 Bit/s)
Log & Cue incl.: Yes
Size: 677,95 MB
Password: “slam” (without ” “)


All Downloads/Hosters are compatible

Download 1
Turbobit.net
Rapidgator.net
UploadEver.com
KatFile.com
UsersDrive.com
Download 2
Turbobit.net
Rapidgator.net
UploadEver.com
KatFile.com
UsersDrive.com
Download 3
Turbobit.net
Rapidgator.net
UploadEver.com
KatFile.com
UsersDrive.com

Tracklist:

Punk Goes Pop 4
1-1 –Pierce The Veil Just The Way You Are 3:43
1-2 –Tonight Alive Little Lion Man 3:53
1-3 –Woe, Is Me Last Friday Night (T.G.I.F.) 4:02
1.4 –The Ready Set Roll Up 3:22
1-5 –Sleeping With Sirens F**k You 3:33
1-6 –Go Radio Rolling In The Deep 3:56
1-7 –For All Those Sleeping You Belong With Me 3:50
1-8 –Chunk! No, Captain Chunk! We R Who We R 3:26
1-9 –A Skylit Drive Love The Way You Lie 4:57
1-10 –Allstar Weekend Yeah 3X 3:58
1-11 –I See Stars Till The World Ends 4:05
1-12 –Silverstein Runaway 8:44
1-13 –The Downtown Fiction Super Bass 3:37
Fearless Records & Peter Says Denim Bonus Sampler
2-1 –Breathe Carolina Wooly 3:51
2-2 –Every Avenue Fall Apart 3:21
2-3 –Go Radio Goodnight Moon 5:04
2-4 –A Skylit Drive The Cali Buds 3:40
2-5 –Chunk! No, Captain Chunk! In Friends We Trust 
3:28
2-6 –Blessthefall Promised Ones 3:38
2-7 –Motionless In White Immaculate Misconception 3:56
2-8 –Sparks The Rescue Worst Thing I've Been Cursed 
With 3:33
2-9 –For All Those Sleeping I'm Not Dead Yet 3:14
2-10 –The Word Alive 2012 3:02

EAC-Log, CUE-Sheed & NFO:

Click to open spoiler
Exact Audio Copy V1.0 beta 3 from 29. August 2011

EAC extraction logfile from 28. January 2012, 0:39

Various Artists / Punk Goes Pop 4

Used drive : HL-DT-STDVDRAM GH20NS15 Adapter: 1 ID: 0

Read mode : Secure
Utilize accurate stream : Yes
Defeat audio cache : Yes
Make use of C2 pointers : No

Read offset correction : 667
Overread into Lead-In and Lead-Out : No
Fill up missing offset samples with silence : Yes
Delete leading and trailing silent blocks : No
Null samples used in CRC calculations : Yes
Used interface : Native Win32 interface for Win NT & 2000
Gap handling : Appended to previous track

Used output format : User Defined Encoder
Selected bitrate : 1024 kBit/s
Quality : High
Add ID3 tag : No
Command line compressor : C:\Program Files (x86)\FLAC\flac.exe
Additional command line options : -8 -V -T “ARTIST=%artist%” -T “TITLE=%title%” -T “ALBUM=%albumtitle%” -T “DATE=%year%” -T “TRACKNUMBER=%tracknr%” -T “GENRE=%genre%” -T “PERFORMER=%albuminterpret%” -T “COMPOSER=%composer%” %haslyrics%–tag-from-file=LYRICS=”%lyricsfile%”%haslyrics% -T “ALBUMARTIST=%albumartist%” -T “DISCNUMBER=%cdnumber%” -T “TOTALDISCS=%totalcds%” -T “TOTALTRACKS=%numtracks%” -T “COMMENT=%comment%” %source% -o %dest%

TOC of the extracted CD

Track | Start | Length | Start sector | End sector
———————————————————
1 | 0:00.00 | 3:43.26 | 0 | 16750
2 | 3:43.26 | 3:53.11 | 16751 | 34236
3 | 7:36.37 | 4:02.48 | 34237 | 52434
4 | 11:39.10 | 3:22.49 | 52435 | 67633
5 | 15:01.59 | 3:33.11 | 67634 | 83619
6 | 18:34.70 | 3:54.40 | 83620 | 101209
7 | 22:29.35 | 3:50.60 | 101210 | 118519
8 | 26:20.20 | 3:26.37 | 118520 | 134006
9 | 29:46.57 | 4:57.18 | 134007 | 156299
10 | 34:44.00 | 3:58.38 | 156300 | 174187
11 | 38:42.38 | 4:05.34 | 174188 | 192596
12 | 42:47.72 | 8:44.05 | 192597 | 231901
13 | 51:32.02 | 3:37.53 | 231902 | 248229

Track 1

Filename E:\Music\EAC Rips\Various Artists – Punk Goes Pop Vol. 4 (2011) [FLAC]\Disc 01\01 – Pierce the Veil – Just the Way You Are.wav

Pre-gap length 0:00:02.00

Peak level 98.8 %
Extraction speed 4.3 X
Track quality 100.0 %
Test CRC D4B59455
Copy CRC D4B59455
Cannot be verified as accurate (confidence 1) [CA6AF86B], AccurateRip returned [C6B248B1] (AR v2)
Copy OK

Track 2

Filename E:\Music\EAC Rips\Various Artists – Punk Goes Pop Vol. 4 (2011) [FLAC]\Disc 01\02 – Tonight Alive – Little Lion Man.wav

Peak level 98.8 %
Extraction speed 4.9 X
Track quality 100.0 %
Test CRC 41379A3B
Copy CRC 41379A3B
Cannot be verified as accurate (confidence 1) [CC5CB732], AccurateRip returned [3ADC4CFF] (AR v2)
Copy OK

Track 3

Filename E:\Music\EAC Rips\Various Artists – Punk Goes Pop Vol. 4 (2011) [FLAC]\Disc 01\03 – Woe, Is Me – Last Friday Night (T.G.I.F.).wav

Peak level 96.6 %
Extraction speed 5.1 X
Track quality 100.0 %
Test CRC 46B90811
Copy CRC 46B90811
Cannot be verified as accurate (confidence 1) [A56E91F8], AccurateRip returned [13A691E0] (AR v2)
Copy OK

Track 4

Filename E:\Music\EAC Rips\Various Artists – Punk Goes Pop Vol. 4 (2011) [FLAC]\Disc 01\04 – The Ready Set – Roll Up.wav

Peak level 98.8 %
Extraction speed 5.5 X
Track quality 100.0 %
Test CRC BCED0A50
Copy CRC BCED0A50
Cannot be verified as accurate (confidence 1) [495876E7], AccurateRip returned [E90A80E5] (AR v2)
Copy OK

Track 5

Filename E:\Music\EAC Rips\Various Artists – Punk Goes Pop Vol. 4 (2011) [FLAC]\Disc 01\05 – Sleeping with Sirens – Fuck You!.wav

Peak level 95.5 %
Extraction speed 4.6 X
Track quality 99.9 %
Test CRC 0D32D5F1
Copy CRC 0D32D5F1
Cannot be verified as accurate (confidence 1) [0164409C], AccurateRip returned [94FEE1EE] (AR v2)
Copy OK

Track 6

Filename E:\Music\EAC Rips\Various Artists – Punk Goes Pop Vol. 4 (2011) [FLAC]\Disc 01\06 – Go Radio – Rolling in the Deep.wav

Peak level 99.4 %
Extraction speed 6.3 X
Track quality 100.0 %
Test CRC 6EE8DFE2
Copy CRC 6EE8DFE2
Cannot be verified as accurate (confidence 1) [AE85D573], AccurateRip returned [F505F7E3] (AR v2)
Copy OK

Track 7

Filename E:\Music\EAC Rips\Various Artists – Punk Goes Pop Vol. 4 (2011) [FLAC]\Disc 01\07 – For All Those Sleeping – You Belong with Me.wav

Peak level 99.8 %
Extraction speed 6.6 X
Track quality 100.0 %
Test CRC F009A437
Copy CRC F009A437
Cannot be verified as accurate (confidence 1) [80AC2BE8], AccurateRip returned [C31C6483] (AR v2)
Copy OK

Track 8

Filename E:\Music\EAC Rips\Various Artists – Punk Goes Pop Vol. 4 (2011) [FLAC]\Disc 01\08 – Chunk! No, Captain Chunk – We R Who We R.wav

Peak level 98.8 %
Extraction speed 5.2 X
Track quality 99.9 %
Test CRC CC267207
Copy CRC CC267207
Cannot be verified as accurate (confidence 1) [A251036D], AccurateRip returned [AE9D306B] (AR v2)
Copy OK

Track 9

Filename E:\Music\EAC Rips\Various Artists – Punk Goes Pop Vol. 4 (2011) [FLAC]\Disc 01\09 – A Skylit Drive – Love the Way You Lie.wav

Peak level 98.8 %
Extraction speed 7.2 X
Track quality 100.0 %
Test CRC 1FF9578D
Copy CRC 1FF9578D
Cannot be verified as accurate (confidence 1) [8FE9E013], AccurateRip returned [C5808D08] (AR v2)
Copy OK

Track 10

Filename E:\Music\EAC Rips\Various Artists – Punk Goes Pop Vol. 4 (2011) [FLAC]\Disc 01\10 – Allstar Weekend – Yeah 3X.wav

Peak level 98.8 %
Extraction speed 7.3 X
Track quality 100.0 %
Test CRC B14B2A78
Copy CRC B14B2A78
Cannot be verified as accurate (confidence 1) [A08EBD45], AccurateRip returned [F67778EE] (AR v2)
Copy OK

Track 11

Filename E:\Music\EAC Rips\Various Artists – Punk Goes Pop Vol. 4 (2011) [FLAC]\Disc 01\11 – I See Stars – Till the World Ends.wav

Peak level 98.8 %
Extraction speed 7.7 X
Track quality 100.0 %
Test CRC FD75F69F
Copy CRC FD75F69F
Cannot be verified as accurate (confidence 1) [697C1A52], AccurateRip returned [836D0640] (AR v2)
Copy OK

Track 12

Filename E:\Music\EAC Rips\Various Artists – Punk Goes Pop Vol. 4 (2011) [FLAC]\Disc 01\12 – Silverstein – Runaway.wav

Peak level 98.8 %
Extraction speed 8.6 X
Track quality 100.0 %
Test CRC ABD42D7E
Copy CRC ABD42D7E
Cannot be verified as accurate (confidence 1) [C238B8BC], AccurateRip returned [02518D31] (AR v2)
Copy OK

Track 13

Filename E:\Music\EAC Rips\Various Artists – Punk Goes Pop Vol. 4 (2011) [FLAC]\Disc 01\13 – The Downtown Fiction – Super Bass.wav

Peak level 98.8 %
Extraction speed 8.2 X
Track quality 100.0 %
Test CRC 97545899
Copy CRC 97545899
Cannot be verified as accurate (confidence 1) [95282004], AccurateRip returned [4B44EA0E] (AR v2)
Copy OK

No tracks could be verified as accurate
You may have a different pressing from the one(s) in the database

No errors occurred

End of status report

—- CUETools DB Plugin V2.1.3

[CTDB TOCID: orsXxPJrJfUdXqc6hdw8fgmKl1w-] found, Submit result: already submitted
[9bb89d49] (2/2) Accurately ripped

==== Log checksum 66013C97F1599CE0F56E2E95555B16A0BF1A7CA6869D75ED769E0297E12C78D0 ====

Exact Audio Copy V1.0 beta 3 from 29. August 2011

EAC extraction logfile from 27. January 2012, 16:07

Various Artists / Punk Goes Pop Vol. 4

Used drive : HL-DT-STDVDRAM GH20NS15 Adapter: 1 ID: 0

Read mode : Secure
Utilize accurate stream : Yes
Defeat audio cache : Yes
Make use of C2 pointers : No

Read offset correction : 667
Overread into Lead-In and Lead-Out : No
Fill up missing offset samples with silence : Yes
Delete leading and trailing silent blocks : No
Null samples used in CRC calculations : Yes
Used interface : Native Win32 interface for Win NT & 2000
Gap handling : Appended to previous track

Used output format : User Defined Encoder
Selected bitrate : 1024 kBit/s
Quality : High
Add ID3 tag : No
Command line compressor : C:\Program Files (x86)\FLAC\flac.exe
Additional command line options : -8 -V -T “ARTIST=%artist%” -T “TITLE=%title%” -T “ALBUM=%albumtitle%” -T “DATE=%year%” -T “TRACKNUMBER=%tracknr%” -T “GENRE=%genre%” -T “PERFORMER=%albuminterpret%” -T “COMPOSER=%composer%” %haslyrics%–tag-from-file=LYRICS=”%lyricsfile%”%haslyrics% -T “ALBUMARTIST=%albumartist%” -T “DISCNUMBER=%cdnumber%” -T “TOTALDISCS=%totalcds%” -T “TOTALTRACKS=%numtracks%” -T “COMMENT=%comment%” %source% -o %dest%

TOC of the extracted CD

Track | Start | Length | Start sector | End sector
———————————————————
1 | 0:00.00 | 3:51.53 | 0 | 17377
2 | 3:51.53 | 3:21.07 | 17378 | 32459
3 | 7:12.60 | 5:04.05 | 32460 | 55264
4 | 12:16.65 | 3:40.30 | 55265 | 71794
5 | 15:57.20 | 3:28.18 | 71795 | 87412
6 | 19:25.38 | 3:38.57 | 87413 | 103819
7 | 23:04.20 | 3:56.41 | 103820 | 121560
8 | 27:00.61 | 3:33.12 | 121561 | 137547
9 | 30:33.73 | 3:14.25 | 137548 | 152122
10 | 33:48.23 | 3:02.40 | 152123 | 165812

Track 1

Filename E:\Music\EAC Rips\Various Artists – Punk Goes Pop Vol. 4 (2011) [FLAC]\Disc 02\01 – Breathe Carolina – Wooly.wav

Pre-gap length 0:00:02.00

Peak level 99.9 %
Extraction speed 3.6 X
Track quality 99.9 %
Test CRC 7D9A3743
Copy CRC 7D9A3743
Accurately ripped (confidence 1) [1211B1B8] (AR v1)
Copy OK

Track 2

Filename E:\Music\EAC Rips\Various Artists – Punk Goes Pop Vol. 4 (2011) [FLAC]\Disc 02\02 – Every Avenue – Fall Apart.wav

Pre-gap length 0:00:02.00

Peak level 99.9 %
Extraction speed 4.6 X
Track quality 100.0 %
Test CRC B16CCACB
Copy CRC B16CCACB
Accurately ripped (confidence 1) [111B8876] (AR v1)
Copy OK

Track 3

Filename E:\Music\EAC Rips\Various Artists – Punk Goes Pop Vol. 4 (2011) [FLAC]\Disc 02\03 – Go Radio – Goodnight Moon.wav

Pre-gap length 0:00:02.00

Peak level 96.6 %
Extraction speed 5.3 X
Track quality 100.0 %
Test CRC 0CBB6851
Copy CRC 0CBB6851
Accurately ripped (confidence 1) [1FB04EB4] (AR v1)
Copy OK

Track 4

Filename E:\Music\EAC Rips\Various Artists – Punk Goes Pop Vol. 4 (2011) [FLAC]\Disc 02\04 – A Skylit Drive – The Cali Buds.wav

Pre-gap length 0:00:02.00

Peak level 82.4 %
Extraction speed 4.5 X
Track quality 99.9 %
Test CRC C6131F1D
Copy CRC C6131F1D
Accurately ripped (confidence 1) [E9E8A02A] (AR v1)
Copy OK

Track 5

Filename E:\Music\EAC Rips\Various Artists – Punk Goes Pop Vol. 4 (2011) [FLAC]\Disc 02\05 – Chunk! No, Captain Chunk – In Friends We Trust.wav

Pre-gap length 0:00:02.00

Peak level 83.8 %
Extraction speed 5.8 X
Track quality 100.0 %
Test CRC FEC3DD89
Copy CRC FEC3DD89
Accurately ripped (confidence 1) [46BC502A] (AR v1)
Copy OK

Track 6

Filename E:\Music\EAC Rips\Various Artists – Punk Goes Pop Vol. 4 (2011) [FLAC]\Disc 02\06 – Blessthefall – Promised Ones.wav

Pre-gap length 0:00:02.00

Peak level 84.1 %
Extraction speed 5.0 X
Track quality 99.9 %
Test CRC 522572D9
Copy CRC 522572D9
Track not present in AccurateRip database
Copy OK

Track 7

Filename E:\Music\EAC Rips\Various Artists – Punk Goes Pop Vol. 4 (2011) [FLAC]\Disc 02\07 – Motionless in White – Immaculate Misconception.wav

Pre-gap length 0:00:02.00

Peak level 83.4 %
Extraction speed 6.5 X
Track quality 100.0 %
Test CRC 5559AC18
Copy CRC 5559AC18
Accurately ripped (confidence 1) [6679EFE8] (AR v1)
Copy OK

Track 8

Filename E:\Music\EAC Rips\Various Artists – Punk Goes Pop Vol. 4 (2011) [FLAC]\Disc 02\08 – Sparks the Rescue – Worst Thing I’ve Been Cursed With.wav

Pre-gap length 0:00:02.00

Peak level 99.4 %
Extraction speed 6.5 X
Track quality 100.0 %
Test CRC 5DD10D6F
Copy CRC 5DD10D6F
Accurately ripped (confidence 1) [531358C2] (AR v1)
Copy OK

Track 9

Filename E:\Music\EAC Rips\Various Artists – Punk Goes Pop Vol. 4 (2011) [FLAC]\Disc 02\09 – For All Those Sleeping – I’m Not Dead Yet.wav

Pre-gap length 0:00:02.00

Peak level 88.3 %
Extraction speed 6.7 X
Track quality 100.0 %
Test CRC 20BD71AD
Copy CRC 20BD71AD
Track not present in AccurateRip database
Copy OK

Track 10

Filename E:\Music\EAC Rips\Various Artists – Punk Goes Pop Vol. 4 (2011) [FLAC]\Disc 02\10 – The Word Alive – 2012.wav

Pre-gap length 0:00:02.00

Peak level 78.7 %
Extraction speed 6.9 X
Track quality 100.0 %
Test CRC 3E8A3801
Copy CRC 3E8A3801
Accurately ripped (confidence 1) [522DF8D6] (AR v1)
Copy OK

8 track(s) accurately ripped
2 track(s) not present in the AccurateRip database

Some tracks could not be verified as accurate

No errors occurred

End of status report

—- CUETools DB Plugin V2.1.3

[CTDB TOCID: 8A7A8ZyENn48wKAlGUYpfNOC7uE-] disk not present in database, Submit result: 8A7A8ZyENn48wKAlGUYpfNOC7uE- has been uploaded

==== Log checksum 0EF4A2BA1CC22B893BCB65594534EEAB3A7AD54032AE628462406DFDA398AF33 ====

REM DATE 2011
REM DISCID AC0CED0D
REM COMMENT “ExactAudioCopy v1.0b3”
PERFORMER “Various Artists”
TITLE “Punk Goes Pop 4”
FILE “01 – Pierce the Veil – Just the Way You Are.wav” WAVE
TRACK 01 AUDIO
TITLE “Just the Way You Are”
PERFORMER “Pierce the Veil”
INDEX 01 00:00:00
FILE “02 – Tonight Alive – Little Lion Man.wav” WAVE
TRACK 02 AUDIO
TITLE “Little Lion Man”
PERFORMER “Tonight Alive”
INDEX 01 00:00:00
FILE “03 – Woe, Is Me – Last Friday Night (T.G.I.F.).wav” WAVE
TRACK 03 AUDIO
TITLE “Last Friday Night (T.G.I.F.)”
PERFORMER “Woe, Is Me”
INDEX 01 00:00:00
FILE “04 – The Ready Set – Roll Up.wav” WAVE
TRACK 04 AUDIO
TITLE “Roll Up”
PERFORMER “The Ready Set”
INDEX 01 00:00:00
FILE “05 – Sleeping with Sirens – Fuck You!.wav” WAVE
TRACK 05 AUDIO
TITLE “Fuck You!”
PERFORMER “Sleeping with Sirens”
INDEX 01 00:00:00
FILE “06 – Go Radio – Rolling in the Deep.wav” WAVE
TRACK 06 AUDIO
TITLE “Rolling in the Deep”
PERFORMER “Go Radio”
INDEX 01 00:00:00
FILE “07 – For All Those Sleeping – You Belong with Me.wav” WAVE
TRACK 07 AUDIO
TITLE “You Belong with Me”
PERFORMER “For All Those Sleeping”
INDEX 01 00:00:00
FILE “08 – Chunk! No, Captain Chunk – We R Who We R.wav” WAVE
TRACK 08 AUDIO
TITLE “We R Who We R”
PERFORMER “Chunk! No, Captain Chunk”
INDEX 01 00:00:00
FILE “09 – A Skylit Drive – Love the Way You Lie.wav” WAVE
TRACK 09 AUDIO
TITLE “Love the Way You Lie”
PERFORMER “A Skylit Drive”
INDEX 01 00:00:00
FILE “10 – Allstar Weekend – Yeah 3X.wav” WAVE
TRACK 10 AUDIO
TITLE “Yeah 3X”
PERFORMER “Allstar Weekend”
INDEX 01 00:00:00
FILE “11 – I See Stars – Till the World Ends.wav” WAVE
TRACK 11 AUDIO
TITLE “Till the World Ends”
PERFORMER “I See Stars”
INDEX 01 00:00:00
FILE “12 – Silverstein – Runaway.wav” WAVE
TRACK 12 AUDIO
TITLE “Runaway”
PERFORMER “Silverstein”
INDEX 01 00:00:00
FILE “13 – The Downtown Fiction – Super Bass.wav” WAVE
TRACK 13 AUDIO
TITLE “Super Bass”
PERFORMER “The Downtown Fiction”
INDEX 01 00:00:00

REM DATE 2011
REM DISCID 8008A20A
REM COMMENT “ExactAudioCopy v1.0b3”
PERFORMER “Various Artists”
TITLE “Punk Goes Pop Vol. 4”
FILE “01 – Breathe Carolina – Wooly.wav” WAVE
TRACK 01 AUDIO
TITLE “Wooly”
PERFORMER “Breathe Carolina”
INDEX 01 00:00:00
TRACK 02 AUDIO
TITLE “Fall Apart”
PERFORMER “Every Avenue”
INDEX 00 03:49:53
FILE “02 – Every Avenue – Fall Apart.wav” WAVE
INDEX 01 00:00:00
TRACK 03 AUDIO
TITLE “Goodnight Moon”
PERFORMER “Go Radio”
INDEX 00 03:19:07
FILE “03 – Go Radio – Goodnight Moon.wav” WAVE
INDEX 01 00:00:00
TRACK 04 AUDIO
TITLE “The Cali Buds”
PERFORMER “A Skylit Drive”
INDEX 00 05:02:05
FILE “04 – A Skylit Drive – The Cali Buds.wav” WAVE
INDEX 01 00:00:00
TRACK 05 AUDIO
TITLE “In Friends We Trust”
PERFORMER “Chunk! No, Captain Chunk”
INDEX 00 03:38:30
FILE “05 – Chunk! No, Captain Chunk – In Friends We Trust.wav” WAVE
INDEX 01 00:00:00
TRACK 06 AUDIO
TITLE “Promised Ones”
PERFORMER “Blessthefall”
INDEX 00 03:26:18
FILE “06 – Blessthefall – Promised Ones.wav” WAVE
INDEX 01 00:00:00
TRACK 07 AUDIO
TITLE “Immaculate Misconception”
PERFORMER “Motionless in White”
INDEX 00 03:36:57
FILE “07 – Motionless in White – Immaculate Misconception.wav” WAVE
INDEX 01 00:00:00
TRACK 08 AUDIO
TITLE “Worst Thing I’ve Been Cursed With”
PERFORMER “Sparks the Rescue”
INDEX 00 03:54:41
FILE “08 – Sparks the Rescue – Worst Thing I’ve Been Cursed With.wav” WAVE
INDEX 01 00:00:00
TRACK 09 AUDIO
TITLE “I’m Not Dead Yet”
PERFORMER “For All Those Sleeping”
INDEX 00 03:31:12
FILE “09 – For All Those Sleeping – I’m Not Dead Yet.wav” WAVE
INDEX 01 00:00:00
TRACK 10 AUDIO
TITLE “2012”
PERFORMER “The Word Alive”
INDEX 00 03:12:25
FILE “10 – The Word Alive – 2012.wav” WAVE
INDEX 01 00:00:00


Leave a Reply

Your email address will not be published. Required fields are marked *

This site uses Akismet to reduce spam. Learn how your comment data is processed.