Various Artists – Punk Goes Pop 3




Artist: Various Artists
Year: 2010
Genre: Punk
Notes: Discogs
Add. Notes:
Cover incl.: Yes
Encoder: FLAC
Bitrate: ~1000 kBit/s (44.1 kHz/16 Bit/s)
Log & Cue incl.: Yes
Size: 392,73 MB
Password: “slam” (without ” “)


All Downloads/Hosters are compatible

Download 1
Turbobit.net
Rapidgator.net
KatFile.com
UploadRar.com
Download 2
Turbobit.net
Rapidgator.net
KatFile.com
UploadRar.com

Tracklist:

1. Breathe Carolina 	Down 	3:43
2. Woe, Is Me 	Hot N Cold 	3:07
3. Artist Vs Poet 	Bad Romance 	4:54
4. Mayday Parade 	In My Head 	3:41
5. Asking Alexandria 	Right Now (Na Na Na) 
	4:20
6. This Century 	Paper Planes 	3:23
7. The Word Alive 	Heartless 	4:00
8. Family Force 5 	Bulletproof 	3:29
9. Of Mice & Men 	Blame It 	4:03
10. Miss May I 	Run This Town 	3:49
11. The Ready Set 	Airplanes 	2:37
12. Cute Is What We Aim For 	Dead And Gone 
	4:55
13. Sparks The Rescue 	Need You Now 	3:33
14. We Came As Romans 	My Love 	3:52

EAC-Log, CUE-Sheed & NFO:

Click to open spoiler
Exact Audio Copy V0.99 prebeta 5 from 4. May 2009

EAC extraction logfile from 1. November 2010, 17:14

Various Artists / Punk Goes Pop 3

Used drive : PHILIPS SPD2413P Adapter: 2 ID: 0

Read mode : Secure
Utilize accurate stream : Yes
Defeat audio cache : Yes
Make use of C2 pointers : No

Read offset correction : 6
Overread into Lead-In and Lead-Out : No
Fill up missing offset samples with silence : Yes
Delete leading and trailing silent blocks : No
Null samples used in CRC calculations : Yes
Used interface : Native Win32 interface for Win NT & 2000
Gap handling : Appended to previous track

Used output format : User Defined Encoder
Selected bitrate : 320 kBit/s
Quality : High
Add ID3 tag : No
Command line compressor : C:\Program Files (x86)\Exact Audio Copy\Flac\flac.exe
Additional command line options : -V -8 -T “artist=%a” -T “title=%t” -T “album=%g” -T “date=%y” -T “tracknumber=%n” -T “genre=%m” %s

TOC of the extracted CD

Track | Start | Length | Start sector | End sector
———————————————————
1 | 0:00.00 | 3:43.50 | 0 | 16774
2 | 3:43.50 | 3:07.52 | 16775 | 30851
3 | 6:51.27 | 4:54.53 | 30852 | 52954
4 | 11:46.05 | 3:41.09 | 52955 | 69538
5 | 15:27.14 | 4:20.57 | 69539 | 89095
6 | 19:47.71 | 3:23.29 | 89096 | 104349
7 | 23:11.25 | 4:00.00 | 104350 | 122349
8 | 27:11.25 | 3:29.13 | 122350 | 138037
9 | 30:40.38 | 4:03.11 | 138038 | 156273
10 | 34:43.49 | 3:49.50 | 156274 | 173498
11 | 38:33.24 | 2:37.61 | 173499 | 185334
12 | 41:11.10 | 4:54.74 | 185335 | 207458
13 | 46:06.09 | 3:33.13 | 207459 | 223446
14 | 49:39.22 | 3:52.72 | 223447 | 240918

Track 1

Filename C:\Users\Jeff\Desktop\torrents\Punk Goes Pop 3 (2010)\01 – Breathe Carolina – Down.wav

Pre-gap length 0:00:02.00

Peak level 99.1 %
Track quality 100.0 %
Test CRC 3B607554
Copy CRC 3B607554
Track not present in AccurateRip database
Copy OK

Track 2

Filename C:\Users\Jeff\Desktop\torrents\Punk Goes Pop 3 (2010)\02 – Woe, Is Me – Hot N Cold.wav

Peak level 99.1 %
Track quality 100.0 %
Test CRC 4DCB6440
Copy CRC 4DCB6440
Track not present in AccurateRip database
Copy OK

Track 3

Filename C:\Users\Jeff\Desktop\torrents\Punk Goes Pop 3 (2010)\03 – Artist Vs Poet – Bad Romance.wav

Peak level 99.1 %
Track quality 100.0 %
Test CRC CDB3891C
Copy CRC CDB3891C
Track not present in AccurateRip database
Copy OK

Track 4

Filename C:\Users\Jeff\Desktop\torrents\Punk Goes Pop 3 (2010)\04 – Mayday Parade – In My Head.wav

Peak level 99.1 %
Track quality 100.0 %
Test CRC 1F48CA1D
Copy CRC 1F48CA1D
Track not present in AccurateRip database
Copy OK

Track 5

Filename C:\Users\Jeff\Desktop\torrents\Punk Goes Pop 3 (2010)\05 – Asking Alexandria – Right Now.wav

Peak level 99.1 %
Track quality 100.0 %
Test CRC 4287FE53
Copy CRC 4287FE53
Track not present in AccurateRip database
Copy OK

Track 6

Filename C:\Users\Jeff\Desktop\torrents\Punk Goes Pop 3 (2010)\06 – This Century – Paper Planes.wav

Peak level 99.1 %
Track quality 100.0 %
Test CRC BE9D84AB
Copy CRC BE9D84AB
Track not present in AccurateRip database
Copy OK

Track 7

Filename C:\Users\Jeff\Desktop\torrents\Punk Goes Pop 3 (2010)\07 – The Word Alive – Heartless.wav

Peak level 99.1 %
Track quality 100.0 %
Test CRC A5A02FBE
Copy CRC A5A02FBE
Track not present in AccurateRip database
Copy OK

Track 8

Filename C:\Users\Jeff\Desktop\torrents\Punk Goes Pop 3 (2010)\08 – Family Force 5 – Bulletproof.wav

Peak level 99.1 %
Track quality 100.0 %
Test CRC 400B0295
Copy CRC 400B0295
Track not present in AccurateRip database
Copy OK

Track 9

Filename C:\Users\Jeff\Desktop\torrents\Punk Goes Pop 3 (2010)\09 – Of Mice & Men – Blame It.wav

Peak level 99.1 %
Track quality 100.0 %
Test CRC E6A8D63D
Copy CRC E6A8D63D
Track not present in AccurateRip database
Copy OK

Track 10

Filename C:\Users\Jeff\Desktop\torrents\Punk Goes Pop 3 (2010)\10 – Miss May I – Run This Town.wav

Peak level 99.1 %
Track quality 100.0 %
Test CRC 4D381880
Copy CRC 4D381880
Track not present in AccurateRip database
Copy OK

Track 11

Filename C:\Users\Jeff\Desktop\torrents\Punk Goes Pop 3 (2010)\11 – The Ready Set – Airplanes.wav

Peak level 99.1 %
Track quality 100.0 %
Test CRC 9457D0F8
Copy CRC 9457D0F8
Track not present in AccurateRip database
Copy OK

Track 12

Filename C:\Users\Jeff\Desktop\torrents\Punk Goes Pop 3 (2010)\12 – Cute Is What We Aim For – Dead And Gone.wav

Peak level 99.1 %
Track quality 100.0 %
Test CRC C921BB17
Copy CRC C921BB17
Track not present in AccurateRip database
Copy OK

Track 13

Filename C:\Users\Jeff\Desktop\torrents\Punk Goes Pop 3 (2010)\13 – Sparks The Rescue – Need You Know.wav

Peak level 99.1 %
Track quality 99.9 %
Test CRC A3D45D33
Copy CRC A3D45D33
Track not present in AccurateRip database
Copy OK

Track 14

Filename C:\Users\Jeff\Desktop\torrents\Punk Goes Pop 3 (2010)\14 – We Came As Romans – My Love.wav

Peak level 99.1 %
Track quality 100.0 %
Test CRC B816BF3E
Copy CRC B816BF3E
Track not present in AccurateRip database
Copy OK

None of the tracks are present in the AccurateRip database

No errors occurred

End of status report

REM GENRE Punk
REM DATE 2010
REM DISCID CA0C8C0E
REM COMMENT “ExactAudioCopy v0.99pb5”
PERFORMER “Various Artists”
TITLE “Punk Goes Pop 3”
FILE “Punk Goes Pop 3 (2010)\01 – Breathe Carolina – Down.wav” WAVE
TRACK 01 AUDIO
TITLE “Down”
PERFORMER “Breathe Carolina”
INDEX 01 00:00:00
FILE “Punk Goes Pop 3 (2010)\02 – Woe, Is Me – Hot N Cold.wav” WAVE
TRACK 02 AUDIO
TITLE “Hot N Cold”
PERFORMER “Woe, Is Me”
INDEX 01 00:00:00
FILE “Punk Goes Pop 3 (2010)\03 – Artist Vs Poet – Bad Romance.wav” WAVE
TRACK 03 AUDIO
TITLE “Bad Romance”
PERFORMER “Artist Vs Poet”
INDEX 01 00:00:00
FILE “Punk Goes Pop 3 (2010)\04 – Mayday Parade – In My Head.wav” WAVE
TRACK 04 AUDIO
TITLE “In My Head”
PERFORMER “Mayday Parade”
INDEX 01 00:00:00
FILE “Punk Goes Pop 3 (2010)\05 – Asking Alexandria – Right Now.wav” WAVE
TRACK 05 AUDIO
TITLE “Right Now”
PERFORMER “Asking Alexandria”
INDEX 01 00:00:00
FILE “Punk Goes Pop 3 (2010)\06 – This Century – Paper Planes.wav” WAVE
TRACK 06 AUDIO
TITLE “Paper Planes”
PERFORMER “This Century”
INDEX 01 00:00:00
FILE “Punk Goes Pop 3 (2010)\07 – The Word Alive – Heartless.wav” WAVE
TRACK 07 AUDIO
TITLE “Heartless”
PERFORMER “The Word Alive”
INDEX 01 00:00:00
FILE “Punk Goes Pop 3 (2010)\08 – Family Force 5 – Bulletproof.wav” WAVE
TRACK 08 AUDIO
TITLE “Bulletproof”
PERFORMER “Family Force 5”
INDEX 01 00:00:00
FILE “Punk Goes Pop 3 (2010)\09 – Of Mice & Men – Blame It.wav” WAVE
TRACK 09 AUDIO
TITLE “Blame It”
PERFORMER “Of Mice & Men”
INDEX 01 00:00:00
FILE “Punk Goes Pop 3 (2010)\10 – Miss May I – Run This Town.wav” WAVE
TRACK 10 AUDIO
TITLE “Run This Town”
PERFORMER “Miss May I”
INDEX 01 00:00:00
FILE “Punk Goes Pop 3 (2010)\11 – The Ready Set – Airplanes.wav” WAVE
TRACK 11 AUDIO
TITLE “Airplanes”
PERFORMER “The Ready Set”
INDEX 01 00:00:00
FILE “Punk Goes Pop 3 (2010)\12 – Cute Is What We Aim For – Dead And Gone.wav” WAVE
TRACK 12 AUDIO
TITLE “Dead And Gone”
PERFORMER “Cute Is What We Aim For”
INDEX 01 00:00:00
FILE “Punk Goes Pop 3 (2010)\13 – Sparks The Rescue – Need You Know.wav” WAVE
TRACK 13 AUDIO
TITLE “Need You Know”
PERFORMER “Sparks The Rescue”
INDEX 01 00:00:00
FILE “Punk Goes Pop 3 (2010)\14 – We Came As Romans – My Love.wav” WAVE
TRACK 14 AUDIO
TITLE “My Love”
PERFORMER “We Came As Romans”
INDEX 01 00:00:00


Leave a Reply

Your email address will not be published. Required fields are marked *

This site uses Akismet to reduce spam. Learn how your comment data is processed.