Various Artists – Punk Collection




Artist: Various Artists
Year:
Genre: Punk
Notes: Discogs
Add. Notes:
Cover incl.: Yes
Encoder: FLAC
Bitrate: ~900 kBit/s (44.1 kHz/16 Bit/s)
Log & Cue incl.: Yes
Size: 486,13 MB
Password: “slam” (without ” “)


All Downloads/Hosters are compatible

Download 1
Turbobit.net
Rapidgator.net
KatFile.com
UploadRar.com
Download 2
Turbobit.net
Rapidgator.net
KatFile.com
UploadRar.com

Tracklist:

1. Sex Pistols 	Anarchy In U.K. 	4:10
2. The Stranglers 	No More Heroes 	3:28
3. The Knack (3) 	My Sharona 	4:01
4. Iggy And The Stooges* 	I Got A Right 	3:23
5. New York Dolls 	Personality Crisis 	4:01
6. The Troggs 	Wild Thing 	2:31
7. UK Subs 	Waiting For My Man 	2:06
8. The Exploited 	I Hate You 	1:36
9. The Bollock Bros* 	I Can't Explain 	2:02
10. The Stranglers 	Golden Brown 	3:25
11. Buzzcocks 	What Do I Get 	3:22
12. The Damned 	Smooth It Up 	4:55
13. Flipper 	Sex Bomb 	7:50
14. Morphine (2) 	You Look Like Rain 	3:40
15. 1000 Yard Stare* 	What's Your Level? 	3:13
16. Chelsea (2) 	Urban Kids 	2:41
17. The Exploited 	Maggie 	2:32
18. Sex Pistols 	This Is Brainwash 	2:51
19. Chris Spedding 	Motor Biking 	2:37
20. UK Subs 	Organised Crime 	1:56
21. The Resistance (4) 	Hollywood Girls 	2:53
22. Link Wray 	Torture 	3:47

EAC-Log, CUE-Sheed & NFO:

Click to open spoiler
Exact Audio Copy V1.0 beta 3 from 29. August 2011

Отчёт EAC об извлечении, выполненном 1. марта 2019, 17:47

Various / Punk Collection

Дисковод: SONY CD-RW CRX230ED Adapter: 2 ID: 1

Режим чтения : Достоверность
Использование точного потока : Да
Отключение кэша аудио : Да
Использование указателей C2 : Нет

Коррекция смещения при чтении : 6
Способность читать области Lead-in и Lead-out : Нет
Заполнение пропущенных сэмплов тишиной : Да
Удаление блоков с тишиной в начале и конце : Нет
При вычислениях CRC использовались нулевые сэмплы : Да
Интерфейс : Встроенный Win32-интерфейс для Win NT/2000

Выходной формат : Пользовательский кодировщик
Выбранный битрейт : 1024 kBit/s
Качество : Высокий
Добавление ID3-тега : Нет
Утилита сжатия : C:\Program Files\FLAC\flac.exe
Дополнительные параметры : -V -8 -T “Date=%year%” -T “Genre=%genre%” %source%

TOC извлечённого CD

Трек | Старт | Длительность | Начальный сектор | Конечный сектор
———————————————————————
1 | 0:00.00 | 4:10.30 | 0 | 18779
2 | 4:10.30 | 3:28.50 | 18780 | 34429
3 | 7:39.05 | 4:01.10 | 34430 | 52514
4 | 11:40.15 | 3:23.65 | 52515 | 67804
5 | 15:04.05 | 4:01.20 | 67805 | 85899
6 | 19:05.25 | 2:31.65 | 85900 | 97289
7 | 21:37.15 | 2:06.00 | 97290 | 106739
8 | 23:43.15 | 1:36.35 | 106740 | 113974
9 | 25:19.50 | 2:02.00 | 113975 | 123124
10 | 27:21.50 | 3:25.40 | 123125 | 138539
11 | 30:47.15 | 3:22.25 | 138540 | 153714
12 | 34:09.40 | 4:55.55 | 153715 | 175894
13 | 39:05.20 | 7:50.65 | 175895 | 211209
14 | 46:56.10 | 3:40.30 | 211210 | 227739
15 | 50:36.40 | 3:13.40 | 227740 | 242254
16 | 53:50.05 | 2:41.60 | 242255 | 254389
17 | 56:31.65 | 2:32.10 | 254390 | 265799
18 | 59:04.00 | 2:51.35 | 265800 | 278659
19 | 61:55.35 | 2:37.55 | 278660 | 290489
20 | 64:33.15 | 1:56.10 | 290490 | 299199
21 | 66:29.25 | 2:53.10 | 299200 | 312184
22 | 69:22.35 | 3:47.05 | 312185 | 329214

Характеристики диапазона извлечения и сообщения об ошибках

Выбранный диапазон

Имя файла H:\[VA] Punk Collection [CD] lossless\Various – Punk Collection.wav

Пиковый уровень 100.0 %
Скорость извлечения 5.1 X
Качество диапазона 100.0 %
CRC теста A1BFDEE3
CRC копии A1BFDEE3
Копирование… OK

Ошибок не произошло

AccurateRip: сводка

Трек 1 : извлечено точно (доверие 1) [826ED772] (AR v2)
Трек 2 : извлечено точно (доверие 1) [8263F4ED] (AR v2)
Трек 3 : извлечено точно (доверие 1) [BCC43FF6] (AR v2)
Трек 4 : извлечено точно (доверие 1) [458221C7] (AR v2)
Трек 5 : извлечено точно (доверие 1) [55EF9918] (AR v2)
Трек 6 : извлечено точно (доверие 1) [53795572] (AR v2)
Трек 7 : извлечено точно (доверие 1) [0C4E83B8] (AR v2)
Трек 8 : извлечено точно (доверие 1) [B1143EB1] (AR v2)
Трек 9 : извлечено точно (доверие 1) [D4979A50] (AR v2)
Трек 10 : извлечено точно (доверие 1) [C9C2FEC5] (AR v2)
Трек 11 : извлечено точно (доверие 1) [6776A4C6] (AR v2)
Трек 12 : извлечено точно (доверие 1) [B6CE7EBC] (AR v2)
Трек 13 : извлечено точно (доверие 1) [83350AA6] (AR v2)
Трек 14 : извлечено точно (доверие 1) [BE39D8F0] (AR v2)
Трек 15 : извлечено точно (доверие 1) [FE5DD3B4] (AR v2)
Трек 16 : извлечено точно (доверие 1) [7FC7838F] (AR v2)
Трек 17 : извлечено точно (доверие 1) [EB9061F3] (AR v2)
Трек 18 : извлечено точно (доверие 1) [E2527DEA] (AR v2)
Трек 19 точность не определена (достоверность 1) [A4D5ED37], AccurateRip вернул [001E336E] (AR v2)
Трек 20 точность не определена (достоверность 1) [19A3A556], AccurateRip вернул [DCBC687C] (AR v2)
Трек 21 точность не определена (достоверность 1) [BE73D667], AccurateRip вернул [FA7490E5] (AR v2)
Трек 22 точность не определена (достоверность 1) [46409E72], AccurateRip вернул [E72FA151] (AR v2)

18 трек(и) скопированы точно
4 трек(и) не удалось проверить на точность

Некоторые треки не прошли проверку на точность

Конец отчёта

==== Контрольная сумма отчёта 666956DC01B23F2A2C2E40B3167AED17A0BC53708A59E28980FEDA24E3356BCF ====

REM GENRE Punk
REM DISCID 3F112516
REM COMMENT “ExactAudioCopy v1.0b3”
PERFORMER “Various”
TITLE “Punk Collection”
FILE “Various – Punk Collection.flac” WAVE
TRACK 01 AUDIO
TITLE “Anarchy in U.K.”
PERFORMER “Sex Pistols”
INDEX 01 00:00:00
TRACK 02 AUDIO
TITLE “No More Heroes”
PERFORMER “The Stranglers”
INDEX 01 04:10:30
TRACK 03 AUDIO
TITLE “My Sharona”
PERFORMER “The Knack”
INDEX 01 07:39:05
TRACK 04 AUDIO
TITLE “I Got a Right”
PERFORMER “Iggy and the Stooges”
INDEX 01 11:40:15
TRACK 05 AUDIO
TITLE “Personality Crisis”
PERFORMER “New York Dolls”
INDEX 01 15:04:05
TRACK 06 AUDIO
TITLE “Wild Thing”
PERFORMER “The Troggs”
INDEX 01 19:05:25
TRACK 07 AUDIO
TITLE “Waiting for My Man”
PERFORMER “U.K. Subs”
INDEX 01 21:37:15
TRACK 08 AUDIO
TITLE “I Hate You”
PERFORMER “The Exploited”
INDEX 01 23:43:15
TRACK 09 AUDIO
TITLE “I Can’t Explain”
PERFORMER “The Bollock Bros”
INDEX 01 25:19:50
TRACK 10 AUDIO
TITLE “Golden Brown”
PERFORMER “The Stranglers”
INDEX 01 27:21:50
TRACK 11 AUDIO
TITLE “What Do I Get”
PERFORMER “Buzzcocks”
INDEX 01 30:47:15
TRACK 12 AUDIO
TITLE “Smooth It Up”
PERFORMER “The Damned”
INDEX 01 34:09:40
TRACK 13 AUDIO
TITLE “Sex Bomb”
PERFORMER “Flipper”
INDEX 01 39:05:20
TRACK 14 AUDIO
TITLE “You Look Like Rain”
PERFORMER “Morphine”
INDEX 01 46:56:10
TRACK 15 AUDIO
TITLE “What’s Your Level?”
PERFORMER “1000 Yard Stare”
INDEX 01 50:36:40
TRACK 16 AUDIO
TITLE “Urban Kids”
PERFORMER “Chelsea”
INDEX 01 53:50:05
TRACK 17 AUDIO
TITLE “Maggie”
PERFORMER “The Exploited”
INDEX 01 56:31:65
TRACK 18 AUDIO
TITLE “This Is Brainwash”
PERFORMER “Sex Pistols”
INDEX 01 59:04:00
TRACK 19 AUDIO
TITLE “Motor Biking”
PERFORMER “Chris Spedding”
INDEX 01 61:55:35
TRACK 20 AUDIO
TITLE “Organised Crime”
PERFORMER “U.K. Subs”
INDEX 01 64:33:15
TRACK 21 AUDIO
TITLE “Hollywood Girls”
PERFORMER “The Resistance”
INDEX 01 66:29:25
TRACK 22 AUDIO
TITLE “Torture”
PERFORMER “Link Wray”
INDEX 01 69:22:35


Leave a Reply

Your email address will not be published. Required fields are marked *

This site uses Akismet to reduce spam. Learn how your comment data is processed.