Various Artists – Punk Chartbusters




Artist: Various Artists
Year: 1995
Genre: Punk
Notes: Discogs
Add. Notes:
Cover incl.: Yes
Encoder: FLAC
Bitrate: ~900 kBit/s (44.1 kHz/16 Bit/s)
Log & Cue incl.: Yes
Size: 476,82 MB
Password: “slam” (without ” “)


All Downloads/Hosters are compatible

Download 1
Turbobit.net
Rapidgator.net
KatFile.com
UploadRar.com
Download 2
Turbobit.net
Rapidgator.net
KatFile.com
UploadRar.com

Tracklist:

1. Stoned Age 	Zombie 	
2. Axel Sweat 	It's Alright 	
3. Terrorgruppe 	As Tears Go By 	
4. Psychotic Youth 	Japanese Boy 	
5. Vulture Culture 	Country Roads 	
6. Boskops 	Sesamstraße 	
7. Tattooed Corpse 	At The Hop 	
8. Teremoto Party 	Kids In America 	
9. The Bates 	Yesterday 	
10. Molotow Soda 	Hiroshima 	
11. Israelvis 	SOS 	
12. Härter Bis Wolkig 	Niemals Geht Man So Ganz 
13. Lost Lyrics 	Devil In Disguise 	
14. Antiseen 	Psycho Killer 	
15. Germ Attack 	Living By Numbers 	
16. Youth Brigade 	Volare 	
17. Blazed Up 	Never Let Me Down 	
18. Peter + The Test Tube Babies* 	Never Gonna Give You Up 	
19. Subterfuge (5) 	Robert De Niro's Waiting 	
20. Baffdecks 	Unbelievable 	
21. The Slags 	Freedom 	
22. Yeti Girls 	Diamonds Are The Girls Best Friends 
23. Jimmy Keith + His Shocky Horrors* 	Milk And Alcohol 
24. Mick & Mack 	Eleanor Rigby 	
25. Dildo Brothers 	Maria Me Ta Kitrina

EAC-Log, CUE-Sheed & NFO:

Click to open spoiler
Exact Audio Copy V1.0 beta 2 from 29. April 2011

EAC extraction logfile from 27. July 2011, 22:44

Various Artists / Punk Chartbusters

Used drive : PIONEER DVD-RW DVR-215D Adapter: 3 ID: 0

Read mode : Secure
Utilize accurate stream : Yes
Defeat audio cache : Yes
Make use of C2 pointers : No

Read offset correction : 48
Overread into Lead-In and Lead-Out : No
Fill up missing offset samples with silence : Yes
Delete leading and trailing silent blocks : No
Null samples used in CRC calculations : Yes
Used interface : Installed external ASPI interface

Used output format : User Defined Encoder
Selected bitrate : 1024 kBit/s
Quality : High
Add ID3 tag : No
Command line compressor : C:\Program Files\Exact Audio Copy\Flac\flac.exe
Additional command line options : -8 -V %source% -T “ARTIST=%albumartist%” -T “TITLE=%title%” -T “ALBUM=%albumtitle%” -T “DATE=%year%” -T “GENRE=%genre%”

TOC of the extracted CD

Track | Start | Length | Start sector | End sector
———————————————————
1 | 0:00.00 | 4:09.30 | 0 | 18704
2 | 4:09.30 | 3:56.00 | 18705 | 36404
3 | 8:05.30 | 2:26.40 | 36405 | 47394
4 | 10:31.70 | 2:43.61 | 47395 | 59680
5 | 13:15.56 | 3:37.68 | 59681 | 76023
6 | 16:53.49 | 1:21.37 | 76024 | 82135
7 | 18:15.11 | 1:34.69 | 82136 | 89254
8 | 19:50.05 | 3:17.34 | 89255 | 104063
9 | 23:07.39 | 1:46.37 | 104064 | 112050
10 | 24:54.01 | 2:50.41 | 112051 | 124841
11 | 27:44.42 | 3:09.53 | 124842 | 139069
12 | 30:54.20 | 2:52.20 | 139070 | 151989
13 | 33:46.40 | 2:18.63 | 151990 | 162402
14 | 36:05.28 | 3:06.73 | 162403 | 176425
15 | 39:12.26 | 2:01.72 | 176426 | 185572
16 | 41:14.23 | 2:06.10 | 185573 | 195032
17 | 43:20.33 | 3:41.35 | 195033 | 211642
18 | 47:01.68 | 3:06.12 | 211643 | 225604
19 | 50:08.05 | 3:34.00 | 225605 | 241654
20 | 53:42.05 | 2:55.43 | 241655 | 254822
21 | 56:37.48 | 4:35.57 | 254823 | 275504
22 | 61:13.30 | 2:32.33 | 275505 | 286937
23 | 63:45.63 | 1:50.39 | 286938 | 295226
24 | 65:36.27 | 2:22.07 | 295227 | 305883
25 | 67:58.34 | 2:43.17 | 305884 | 318125

Range status and errors

Selected range

Filename D:\_HxHolocaust collection\V.A. -1995- Punk Chartbusters\Various Artists – Punk Chartbusters.wav

Peak level 100.0 %
Extraction speed 6.3 X
Range quality 99.9 %
Test CRC 3E5ACB45
Copy CRC 3E5ACB45
Copy OK

No errors occurred

AccurateRip summary

Track 1 cannot be verified as accurate (confidence 3) [F717E01A], AccurateRip returned [68F9B10A] (AR v2)
Track 2 cannot be verified as accurate (confidence 4) [270145A1], AccurateRip returned [D1C679C1] (AR v2)
Track 3 cannot be verified as accurate (confidence 3) [AA8D536B], AccurateRip returned [535E762C] (AR v2)
Track 4 cannot be verified as accurate (confidence 3) [DEE32357], AccurateRip returned [14F6B6DA] (AR v2)
Track 5 cannot be verified as accurate (confidence 3) [02257FE6], AccurateRip returned [9612093C] (AR v2)
Track 6 cannot be verified as accurate (confidence 3) [F062DEE6], AccurateRip returned [27B1A42D] (AR v2)
Track 7 cannot be verified as accurate (confidence 3) [98E7360F], AccurateRip returned [214CB50B] (AR v2)
Track 8 cannot be verified as accurate (confidence 3) [E2E041F5], AccurateRip returned [23FB9867] (AR v2)
Track 9 cannot be verified as accurate (confidence 3) [F28D6330], AccurateRip returned [9B95854F] (AR v2)
Track 10 cannot be verified as accurate (confidence 3) [D2C39A7D], AccurateRip returned [F3155B7B] (AR v2)
Track 11 cannot be verified as accurate (confidence 4) [EB1BDB8A], AccurateRip returned [AB6980BF] (AR v2)
Track 12 cannot be verified as accurate (confidence 4) [3BBE386B], AccurateRip returned [E7E80BDE] (AR v2)
Track 13 cannot be verified as accurate (confidence 4) [09E2A3C0], AccurateRip returned [913D7C94] (AR v2)
Track 14 cannot be verified as accurate (confidence 3) [8A39D5DD], AccurateRip returned [CEB82506] (AR v2)
Track 15 cannot be verified as accurate (confidence 3) [3AD95CD2], AccurateRip returned [59CD1DB0] (AR v2)
Track 16 cannot be verified as accurate (confidence 3) [F0CB708C], AccurateRip returned [04550E30] (AR v2)
Track 17 cannot be verified as accurate (confidence 3) [7C7C0EC9], AccurateRip returned [335065D1] (AR v2)
Track 18 cannot be verified as accurate (confidence 4) [E57208BE], AccurateRip returned [C734183A] (AR v2)
Track 19 cannot be verified as accurate (confidence 4) [331A446C], AccurateRip returned [EF320718] (AR v2)
Track 20 cannot be verified as accurate (confidence 3) [0139A658], AccurateRip returned [D608A1B5] (AR v2)
Track 21 cannot be verified as accurate (confidence 3) [9960C187], AccurateRip returned [8CF062C6] (AR v2)
Track 22 cannot be verified as accurate (confidence 4) [06AF2AA6], AccurateRip returned [0317FA4F] (AR v2)
Track 23 cannot be verified as accurate (confidence 3) [BE66D802], AccurateRip returned [7E7FAB2E] (AR v2)
Track 24 cannot be verified as accurate (confidence 3) [3AA5A03D], AccurateRip returned [B8761F71] (AR v2)
Track 25 cannot be verified as accurate (confidence 3) [880F7958], AccurateRip returned [4345D6A3] (AR v2)

No tracks could be verified as accurate
You may have a different pressing from the one(s) in the database

End of status report

==== Log checksum 2B043DC90D51057A7501DF6109DEFBA548CA902E5CB2ADC158D5477B68F17086 ====

REM GENRE Punk
REM DATE 1995
REM DISCID 7F109119
REM COMMENT “ExactAudioCopy v1.0b2”
PERFORMER “Various Artists”
TITLE “Punk Chartbusters”
FILE “Various Artists – Punk Chartbusters.flac” WAVE
TRACK 01 AUDIO
TITLE “Zombie (The Cranberries)”
PERFORMER “Stoned Age”
INDEX 01 00:00:00
TRACK 02 AUDIO
TITLE “It’s Alright (East 17)”
PERFORMER “Axel Sweat”
INDEX 00 04:05:39
INDEX 01 04:09:30
TRACK 03 AUDIO
TITLE “As tears go by (Rolling Stones)”
PERFORMER “Terrorgruppe”
INDEX 00 08:01:18
INDEX 01 08:05:30
TRACK 04 AUDIO
TITLE “Japanese Boy (Aneka)”
PERFORMER “Psychotic Youth”
INDEX 00 10:27:72
INDEX 01 10:31:70
TRACK 05 AUDIO
TITLE “Country Roads (John Denver)”
PERFORMER “Vulture Culture”
INDEX 00 13:11:58
INDEX 01 13:15:56
TRACK 06 AUDIO
TITLE “Sesamstrasse (Ingfried Hoffmann & Volker Ludwig)”
PERFORMER “Boskops”
INDEX 00 16:49:44
INDEX 01 16:53:49
TRACK 07 AUDIO
TITLE “At the Hop (Danny & The Juniors)”
PERFORMER “Tattooed Corpse”
INDEX 00 18:11:04
INDEX 01 18:15:11
TRACK 08 AUDIO
TITLE “Kids in America (Kim Wilde)”
PERFORMER “Terremoto Party”
INDEX 00 19:46:17
INDEX 01 19:50:05
TRACK 09 AUDIO
TITLE “Yesterday (The Beatles)”
PERFORMER “The Bates”
INDEX 00 23:03:29
INDEX 01 23:07:39
TRACK 10 AUDIO
TITLE “Hiroshima (Sandra)”
PERFORMER “Molotow Soda”
INDEX 00 24:50:09
INDEX 01 24:54:01
TRACK 11 AUDIO
TITLE “SOS (ABBA)”
PERFORMER “Israelvis”
INDEX 00 27:40:52
INDEX 01 27:44:42
TRACK 12 AUDIO
TITLE “Niemals geht man so ganz (Trude Herr)”
PERFORMER “Harter bis Wolkig”
INDEX 00 30:50:24
INDEX 01 30:54:20
TRACK 13 AUDIO
TITLE “Devil in Disguise (Elvis Presley)”
PERFORMER “Lost Lyrics”
INDEX 00 33:42:56
INDEX 01 33:46:40
TRACK 14 AUDIO
TITLE “Psycho Killer (Talking Heads)”
PERFORMER “Antiseen”
INDEX 00 36:01:40
INDEX 01 36:05:28
TRACK 15 AUDIO
TITLE “Living by Numbers (T. Mansfield)”
PERFORMER “Germattack”
INDEX 00 39:08:19
INDEX 01 39:12:26
TRACK 16 AUDIO
TITLE “Volare (Domenico Modugno & Franco Migliacci)”
PERFORMER “Youth Brigade”
INDEX 00 41:10:32
INDEX 01 41:14:23
TRACK 17 AUDIO
TITLE “Never let me down (Depeche Mode)”
PERFORMER “Blazed Up”
INDEX 00 43:16:26
INDEX 01 43:20:33
TRACK 18 AUDIO
TITLE “Never gonna give you up (Rick Astley)”
PERFORMER “Peter & The Test Tube Babies”
INDEX 00 46:57:66
INDEX 01 47:01:68
TRACK 19 AUDIO
TITLE “Robert de Niro’s waiting (Bananarama)”
PERFORMER “Subterfuge”
INDEX 00 50:04:05
INDEX 01 50:08:05
TRACK 20 AUDIO
TITLE “Unbelievable (EMF)”
PERFORMER “Baffdecks”
INDEX 00 53:37:71
INDEX 01 53:42:05
TRACK 21 AUDIO
TITLE “Freedom (Rick Havens)”
PERFORMER “The Slags”
INDEX 00 56:33:59
INDEX 01 56:37:48
TRACK 22 AUDIO
TITLE “Diamonds are a Girl’s best Friend (M. Monroe)”
PERFORMER “Yeti Girl”
INDEX 00 61:09:33
INDEX 01 61:13:30
TRACK 23 AUDIO
TITLE “Milk and Alcohol (Dr. Feelgood)”
PERFORMER “Jimmy Keith & His Shocky Horrors”
INDEX 00 63:41:54
INDEX 01 63:45:63
TRACK 24 AUDIO
TITLE “Eleanor Rigby (The Beatles)”
PERFORMER “Mick & Mack”
INDEX 00 65:32:30
INDEX 01 65:36:27
TRACK 25 AUDIO
TITLE “Maria Me Ta Kitrina (Vassilis Dimitriou)”
PERFORMER “Dildo Brothers”
INDEX 00 67:54:45
INDEX 01 67:58:34


Leave a Reply

Your email address will not be published. Required fields are marked *

Enter the text from the image below
 

This site uses Akismet to reduce spam. Learn how your comment data is processed.