Various Artists – Music From The Soundtrack Of The Who Film Quadrophenia




Artist: Various Artists
Year: 2000
Genre: Rock
Notes: Discogs
Add. Notes:
Cover incl.: Yes
Encoder: FLAC
Bitrate: ~900 kBit/s (44.1 kHz/16 Bit/s)
Log & Cue incl.: Yes
Size: 521,92 MB
Password: “slam” (without ” “)


All Downloads/Hosters are compatible

Download 1
Turbobit.net
Rapidgator.net
KatFile.com
UploadRar.com
Download 2
Turbobit.net
Rapidgator.net
KatFile.com
UploadRar.com

Tracklist:

1. The Who - I Am The Sea - 2:03
2. The Who - The Real Me - 3:28
3. The Who - I'm One - 2:40
4. The Who - 5.15 - 4:50
5. The Who - Love Reign O'er Me - 5:11
6. The Who - Bellboy - 4:55
7. The Who - I've Had Enough - 6:11
8. The Who - Helpless Dancer - 0:22
9. The Who - Doctor Jimmy - 7:31
10. The High Numbers - Zoot Suit - 2:00
11. Cross Section - Hi Heel Sneakers - 2:46
12. The Who - Get Out And Stay Out - 2:26
13. The Who - Four Faces - 3:20
14. The Who - Joker James - 3:13
15. The Who - The Punk And The Godfather - 5:21
16. James Brown - Night Train - 3:38
17. The Kingsmen - Louie Louie - 2:41
18. Booker T And The MG's* - Green Onions - 2:46
19. The Cascades (2) - Rhythm Of The Rain - 2:28
20. The Chiffons - He's So Fine - 1:52
21. The Ronettes - Be My Baby - 2:30
22. The Crystals - Da Doo Ron Ron - 2:09
23. The High Numbers - I'm The Face - 2:29

EAC-Log, CUE-Sheed & NFO:

Click to open spoiler
Exact Audio Copy V0.99 prebeta 4 from 23. January 2008

EAC extraction logfile from 8. July 2009, 23:52

The Who And Various Artists / Quadrophenia (Soundtrack)

Used drive : HL-DT-STDVDRAM GSA-T20N Adapter: 1 ID: 0

Read mode : Secure
Utilize accurate stream : Yes
Defeat audio cache : Yes
Make use of C2 pointers : No

Read offset correction : 667
Overread into Lead-In and Lead-Out : No
Fill up missing offset samples with silence : Yes
Delete leading and trailing silent blocks : No
Null samples used in CRC calculations : Yes
Used interface : Installed external ASPI interface

Used output format : Internal WAV Routines
Sample format : 44.100 Hz; 16 Bit; Stereo

TOC of the extracted CD

Track | Start | Length | Start sector | End sector
———————————————————
1 | 0:00.00 | 2:03.66 | 0 | 9290
2 | 2:03.66 | 3:31.29 | 9291 | 25144
3 | 5:35.20 | 2:43.39 | 25145 | 37408
4 | 8:18.59 | 4:53.68 | 37409 | 59451
5 | 13:12.52 | 5:13.50 | 59452 | 82976
6 | 18:26.27 | 4:57.27 | 82977 | 105278
7 | 23:23.54 | 6:11.63 | 105279 | 133166
8 | 29:35.42 | 0:22.29 | 133167 | 134845
9 | 29:57.71 | 7:31.00 | 134846 | 168670
10 | 37:28.71 | 2:01.12 | 168671 | 177757
11 | 39:30.08 | 2:47.56 | 177758 | 190338
12 | 42:17.64 | 2:28.49 | 190339 | 201487
13 | 44:46.38 | 3:21.23 | 201488 | 216585
14 | 48:07.61 | 3:13.54 | 216586 | 231114
15 | 51:21.40 | 5:23.69 | 231115 | 255408
16 | 56:45.34 | 3:39.60 | 255409 | 271893
17 | 60:25.19 | 2:41.46 | 271894 | 284014
18 | 63:06.65 | 2:47.33 | 284015 | 296572
19 | 65:54.23 | 2:30.51 | 296573 | 307873
20 | 68:24.74 | 1:54.41 | 307874 | 316464
21 | 70:19.40 | 2:31.46 | 316465 | 327835
22 | 72:51.11 | 2:10.51 | 327836 | 337636
23 | 75:01.62 | 2:29.61 | 337637 | 348872

Range status and errors

Selected range

Filename The Who And Various Artists – Quadrophenia (Soundtrack).wav

Peak level 99.8 %
Range quality 100.0 %
Copy CRC 565AF57F
Copy OK

No errors occurred

AccurateRip summary

Track 1 accurately ripped (confidence 27) [60DC238F]
Track 2 accurately ripped (confidence 27) [DA46D46F]
Track 3 accurately ripped (confidence 28) [2FA83FE7]
Track 4 accurately ripped (confidence 27) [788BA7D2]
Track 5 accurately ripped (confidence 27) [EF3D11DE]
Track 6 accurately ripped (confidence 27) [6E520349]
Track 7 accurately ripped (confidence 28) [3577843C]
Track 8 accurately ripped (confidence 28) [F1F76919]
Track 9 accurately ripped (confidence 27) [41A71B7C]
Track 10 accurately ripped (confidence 28) [31F8C5F9]
Track 11 accurately ripped (confidence 28) [38BA7224]
Track 12 accurately ripped (confidence 28) [A4EBBC01]
Track 13 accurately ripped (confidence 28) [60C54F09]
Track 14 accurately ripped (confidence 27) [5DCD50F1]
Track 15 accurately ripped (confidence 28) [F2313E6F]
Track 16 accurately ripped (confidence 27) [C08B403D]
Track 17 accurately ripped (confidence 28) [CA41AD09]
Track 18 accurately ripped (confidence 28) [40F6E066]
Track 19 accurately ripped (confidence 28) [B1337126]
Track 20 accurately ripped (confidence 28) [FC6BB374]
Track 21 accurately ripped (confidence 28) [185C81BC]
Track 22 accurately ripped (confidence 28) [76D2E9BA]
Track 23 accurately ripped (confidence 27) [8A2A4178]

All tracks accurately ripped

End of status report

REM GENRE Soundtrack
REM DATE 1979
REM DISCID 62122B17
REM COMMENT “ExactAudioCopy v0.99pb4”
PERFORMER “The Who And Various Artists”
TITLE “Quadrophenia (Original Soundtrack)”
FILE “The Who And Various Artists – Quadrophenia (Original Soundtrack).wav” WAVE
TRACK 01 AUDIO
TITLE “I Am The Sea (The Who)”
PERFORMER “The Who And Various Artists”
INDEX 01 00:00:00
TRACK 02 AUDIO
TITLE “The Real Me (The Who)”
PERFORMER “The Who And Various Artists”
INDEX 01 02:03:66
TRACK 03 AUDIO
TITLE “I’m One (The Who)”
PERFORMER “The Who And Various Artists”
INDEX 00 05:32:32
INDEX 01 05:35:20
TRACK 04 AUDIO
TITLE “5:15 (The Who)”
PERFORMER “The Who And Various Artists”
INDEX 00 08:15:49
INDEX 01 08:18:59
TRACK 05 AUDIO
TITLE “Love Reign O’er Me (The Who)”
PERFORMER “The Who And Various Artists”
INDEX 00 13:09:30
INDEX 01 13:12:52
TRACK 06 AUDIO
TITLE “Bellboy (The Who)”
PERFORMER “The Who And Various Artists”
INDEX 00 18:23:52
INDEX 01 18:26:27
TRACK 07 AUDIO
TITLE “I’ve Had Enough (The Who)”
PERFORMER “The Who And Various Artists”
INDEX 00 23:21:50
INDEX 01 23:23:54
TRACK 08 AUDIO
TITLE “Helpless Dancer (The Who)”
PERFORMER “The Who And Various Artists”
INDEX 00 29:34:57
INDEX 01 29:35:42
TRACK 09 AUDIO
TITLE “Doctor Jimmy (The Who)”
PERFORMER “The Who And Various Artists”
INDEX 00 29:57:46
INDEX 01 29:57:71
TRACK 10 AUDIO
TITLE “Zoot Suit (The High Numbers)”
PERFORMER “The Who And Various Artists”
INDEX 00 37:27:45
INDEX 01 37:28:71
TRACK 11 AUDIO
TITLE “Hi Heel Sneakers (Cross Section)”
PERFORMER “The Who And Various Artists”
INDEX 00 39:28:31
INDEX 01 39:30:08
TRACK 12 AUDIO
TITLE “Get Out And Stay Out (The Who)”
PERFORMER “The Who And Various Artists”
INDEX 00 42:16:46
INDEX 01 42:17:64
TRACK 13 AUDIO
TITLE “Four Faces (The Who)”
PERFORMER “The Who And Various Artists”
INDEX 00 44:44:60
INDEX 01 44:46:38
TRACK 14 AUDIO
TITLE “Joker James (The Who)”
PERFORMER “The Who And Various Artists”
INDEX 00 48:06:49
INDEX 01 48:07:61
TRACK 15 AUDIO
TITLE “The Punk And The Godfather (The Who)”
PERFORMER “The Who And Various Artists”
INDEX 00 51:20:69
INDEX 01 51:21:40
TRACK 16 AUDIO
TITLE “Night Train (James Brown)”
PERFORMER “The Who And Various Artists”
INDEX 00 56:42:44
INDEX 01 56:45:34
TRACK 17 AUDIO
TITLE “Louie Louie (The Kingsmen)”
PERFORMER “The Who And Various Artists”
INDEX 00 60:24:22
INDEX 01 60:25:19
TRACK 18 AUDIO
TITLE “Green Onions (Booker T And The MG’s)”
PERFORMER “The Who And Various Artists”
INDEX 01 63:06:65
TRACK 19 AUDIO
TITLE “Rhythm Of The Rain (The Cascades)”
PERFORMER “The Who And Various Artists”
INDEX 00 65:53:25
INDEX 01 65:54:23
TRACK 20 AUDIO
TITLE “He’s So Fine (The Chiffons)”
PERFORMER “The Who And Various Artists”
INDEX 00 68:22:64
INDEX 01 68:24:74
TRACK 21 AUDIO
TITLE “Be My Baby (The Ronettes)”
PERFORMER “The Who And Various Artists”
INDEX 00 70:17:58
INDEX 01 70:19:40
TRACK 22 AUDIO
TITLE “Da Doo Ron Ron (The Crystals)”
PERFORMER “The Who And Various Artists”
INDEX 00 72:50:22
INDEX 01 72:51:11
TRACK 23 AUDIO
TITLE “I’m The Face (The High Numbers)”
PERFORMER “The Who And Various Artists”
INDEX 00 75:00:44
INDEX 01 75:01:62


Leave a Reply

Your email address will not be published. Required fields are marked *

This site uses Akismet to reduce spam. Learn how your comment data is processed.