Various Artists – Haus Mainusch Die Single Zum Untergang (Promo)




Artist: Various Artists
Year: 1999
Genre: Punk
Notes: Discogs
Add. Notes: Promo
Cover incl.: Yes
Encoder: FLAC
Bitrate: ~1000 kBit/s (44.1 kHz/16 Bit/s)
Log & Cue incl.: Yes
Size: 94 MB
Password: “slam” (without ” “)


All Downloads/Hosters are compatible

Download 1
KatFile.com
Turbobit.net
Rapidgator.net
Turbobit.net
Download 2
KatFile.com
Turbobit.net
Rapidgator.net
Turbobit.net

Tracklist:

1. Mainusch Allstars - Haus 
Mainusch-Song
2. Hängerband* - Verpißt Euch
3. BILDungslücke - Linke Spießer
4. Untergangskommando - Auf Dem 
Weg In Den Ruin

EAC-Log, CUE-Sheed & NFO:

Click to open spoiler
Exact Audio Copy V1.3 from 2. September 2016

EAC extraction logfile from 17. August 2019, 0:24

– / Haus Mainusch – Die Single zum Untergang

Used drive : HL-DT-STDVDRAM GUE0N Adapter: 1 ID: 0

Read mode : Secure
Utilize accurate stream : Yes
Defeat audio cache : Yes
Make use of C2 pointers : No

Read offset correction : 102
Overread into Lead-In and Lead-Out : No
Fill up missing offset samples with silence : Yes
Delete leading and trailing silent blocks : No
Null samples used in CRC calculations : Yes
Used interface : Native Win32 interface for Win NT & 2000

Used output format : User Defined Encoder
Selected bitrate : 1024 kBit/s
Quality : High
Add ID3 tag : No
Command line compressor : C:\Program Files (x86)\Exact Audio Copy\FLAC\FLAC.EXE
Additional command line options : -8 -V -T “ARTIST=%artist%” -T “TITLE=%title%” -T “ALBUM=%albumtitle%” -T “DATE=%year%” -T “TRACKNUMBER=%tracknr%” -T “GENRE=%genre%” -T “COMMENT=%comment%” -T “BAND=%albuminterpret%” -T “COMPOSER=%composer%” %haslyrics%–tag-from-file=LYRICS=”%lyricsfile%”%haslyrics% -T “DISCNUMBER=%cdnumber%” -T “TOTALDISCS=%totalcds%” -T “TOTALTRACKS=%numtracks%” %hascover%–picture=”%coverfile%”%hascover% %source% -o %dest%

TOC of the extracted CD

Track | Start | Length | Start sector | End sector
———————————————————
1 | 0:00.00 | 4:37.11 | 0 | 20785
2 | 4:37.11 | 1:45.33 | 20786 | 28693
3 | 6:22.44 | 1:54.21 | 28694 | 37264
4 | 8:16.65 | 3:58.05 | 37265 | 55119

Range status and errors

Selected range

Filename M:\SLAM\www.slam.ws – Lossless Alternative Music\Haus Mainusch – Die Single zum Untergang\Haus Mainusch – Die Single zum Untergang.wav

Peak level 98.8 %
Extraction speed 3.1 X
Range quality 99.9 %
Copy CRC 1CD8A9F7
Copy OK

No errors occurred

AccurateRip summary

Track 1 not present in database
Track 2 not present in database
Track 3 not present in database
Track 4 not present in database

None of the tracks are present in the AccurateRip database

End of status report

—- CUETools DB Plugin V2.1.6

[CTDB TOCID: R9.AMaDDWOL5AVVO2evLy243ENY-] found
Submit result: already submitted
Track | CTDB Status
1 | (1/1) Accurately ripped
2 | (1/1) Accurately ripped
3 | (1/1) Accurately ripped
4 | (1/1) Accurately ripped

==== Log checksum 179ADDB594CF763F11E5E4CDD8226F96A09F727B7F11AD15009B9074EE0E3EFC ====

————————————————————

Exact Audio Copy V1.3 from 2. September 2016

EAC extraction logfile from 17. August 2019, 0:29

– / Haus Mainusch – Die Single zum Untergang

Used drive : HL-DT-STDVDRAM GUE0N Adapter: 1 ID: 0

Read mode : Secure
Utilize accurate stream : Yes
Defeat audio cache : Yes
Make use of C2 pointers : No

Read offset correction : 102
Overread into Lead-In and Lead-Out : No
Fill up missing offset samples with silence : Yes
Delete leading and trailing silent blocks : No
Null samples used in CRC calculations : Yes
Used interface : Native Win32 interface for Win NT & 2000

Used output format : Internal WAV Routines
Sample format : 44.100 Hz; 16 Bit; Stereo

TOC of the extracted CD

Track | Start | Length | Start sector | End sector
———————————————————
1 | 0:00.00 | 4:37.11 | 0 | 20785
2 | 4:37.11 | 1:45.33 | 20786 | 28693
3 | 6:22.44 | 1:54.21 | 28694 | 37264
4 | 8:16.65 | 3:58.05 | 37265 | 55119

Range status and errors

Selected range

Filename M:\SLAM\www.slam.ws – Lossless Alternative Music\Haus Mainusch – Die Single zum Untergang\Haus Mainusch – Die Single zum Untergang.wav

Peak level 98.8 %
Extraction speed 3.4 X
Range quality 100.0 %
Copy CRC 1CD8A9F7
Copy OK

No errors occurred

AccurateRip summary

Track 1 not present in database
Track 2 not present in database
Track 3 not present in database
Track 4 not present in database

None of the tracks are present in the AccurateRip database

End of status report

—- CUETools DB Plugin V2.1.6

[CTDB TOCID: R9.AMaDDWOL5AVVO2evLy243ENY-] found
Submit result: already submitted
Track | CTDB Status
1 | (1/1) Accurately ripped
2 | (1/1) Accurately ripped
3 | (1/1) Accurately ripped
4 | (1/1) Accurately ripped

==== Log checksum EBAF9E511CF8E45B675FA47C10EA33C6EBE6C9882833F2B64FEA0F288092206E ====

REM GENRE Punk
REM DATE 1998
REM DISCID 3802DE04
REM COMMENT “ExactAudioCopy v1.3”
PERFORMER “”
TITLE “Haus Mainusch – Die Single zum Untergang”
REM COMPOSER “”
FILE “Haus Mainusch – Die Single zum Untergang.wav” WAVE
TRACK 01 AUDIO
TITLE “Haus Mainusch-Song”
PERFORMER “Mainusch Allstars”
REM COMPOSER “”
INDEX 01 00:00:00
TRACK 02 AUDIO
TITLE “Verpisst euch”
PERFORMER “Hängerband”
REM COMPOSER “”
INDEX 00 04:35:11
INDEX 01 04:37:11
TRACK 03 AUDIO
TITLE “Linke Spiesser”
PERFORMER “BILDungslücke”
REM COMPOSER “”
INDEX 00 06:20:44
INDEX 01 06:22:44
TRACK 04 AUDIO
TITLE “Auf dem Weg in den Ruin”
PERFORMER “Das Untergangskommando”
REM COMPOSER “”
INDEX 00 08:14:65
INDEX 01 08:16:65


Leave a Reply

Your email address will not be published. Required fields are marked *

This site uses Akismet to reduce spam. Learn how your comment data is processed.