Various Artists – Die Drei von der Punkstelle Vol. 1




[Total: 0    Average: 0/5]

Artist: Various Artists
Year: 1997
Genre: Punk
Notes: Discogs
Add. Notes:
Cover incl.: Yes
Encoder: FLAC
Bitrate: ~1000 kBit/s (44.1 kHz/16 Bit/s)
Log & Cue incl.: Yes
Size: 532,9 MB
Password: “slam” (without ” “)


All Downloads/Hosters are compatible

Download 1
Share-online.biz
KatFile.com
Rapidgator.net
NitroFlare.com
Download 2
Share-online.biz
KatFile.com
Rapidgator.net
NitroFlare.com

Tracklist:

1. Scabies 	Blöde Punx 	3:20
2. Anti-Nowhere League 	Fucked Up & Wasted 
	3:37
3. Scattergun 	Social Bastards 	3:09
4. The Bullocks 	Komm Zurück Zu Mir 	2:54
5. The Pig Must Die 	Ich Heisse Ritchie 	3:24
6. Fuckin' Faces 	Ich Habe Angst 	2:40
7. Germ Attack 	Time 	2:47
8. Die Schwarzen Schafe 	Die Wieder 	2:29
9. Noe* 	Andrea Doria 	3:15
10. Psychotic Youth 	Goldie Hawn 	1:59
11. Notdurft 	Ich Will Nicht So Sein Wie Ihr 	3:16
12. Popperklopper 	Gewalt 	2:36
13. Across The Border 	When Two Men Kiss 
	2:28
14. Moskovskaya 	Mokovskaya/Raissa 	3:44
15. No Respect (2) 	Lose It All 	2:10
16. Split Image (4) 	Ich Bin Ich 	3:37
17. Blind Pigs 	Rotten Generation 	2:01
18. Grazhdanskaya Oborona* 	Anarchia 	1:20
19. Untergangskommando 	Die Masse Wütet 	2:55
20. Supernichts 	Nur Der Edekamarkt 	1:34
21. Fabsi & Der Peanutsclub 	Hasstag 	1:54
22. Richies 	Lost In France 	3:17
23. Ad Nauseam 	Amoklauf 	2:34
24. Yeti Girls 	Hey Babe 	2:24
25. Mr. Bubble B. 	Punk Rock Show 	2:11
26. Square The Circle 	Lowdown Twist 	1:42
27. Fro-Tee Slips 	Cem Macht Blau 	1:19
28. Negativ Nein 	Gnadenlos 	2:33

EAC-Log, CUE-Sheed & NFO:

Click to open spoiler
Exact Audio Copy V1.3 from 2. September 2016

EAC extraction logfile from 22. July 2019, 12:40

Various Artists / Die Drei von der Punkstelle Vol. 1

Used drive : HL-DT-STDVDRAM GUE0N Adapter: 1 ID: 0

Read mode : Secure
Utilize accurate stream : Yes
Defeat audio cache : Yes
Make use of C2 pointers : No

Read offset correction : 102
Overread into Lead-In and Lead-Out : No
Fill up missing offset samples with silence : Yes
Delete leading and trailing silent blocks : No
Null samples used in CRC calculations : Yes
Used interface : Native Win32 interface for Win NT & 2000
Gap handling : Appended to previous track

Used output format : User Defined Encoder
Selected bitrate : 1024 kBit/s
Quality : High
Add ID3 tag : No
Command line compressor : C:\Program Files (x86)\Exact Audio Copy\FLAC\FLAC.EXE
Additional command line options : -8 -V -T “ARTIST=%artist%” -T “TITLE=%title%” -T “ALBUM=%albumtitle%” -T “DATE=%year%” -T “TRACKNUMBER=%tracknr%” -T “GENRE=%genre%” -T “COMMENT=%comment%” -T “BAND=%albuminterpret%” -T “COMPOSER=%composer%” %haslyrics%–tag-from-file=LYRICS=”%lyricsfile%”%haslyrics% -T “DISCNUMBER=%cdnumber%” -T “TOTALDISCS=%totalcds%” -T “TOTALTRACKS=%numtracks%” %hascover%–picture=”%coverfile%”%hascover% %source% -o %dest%

TOC of the extracted CD

Track | Start | Length | Start sector | End sector
———————————————————
1 | 0:00.00 | 3:20.32 | 0 | 15031
2 | 3:20.32 | 3:37.38 | 15032 | 31344
3 | 6:57.70 | 3:09.27 | 31345 | 45546
4 | 10:07.22 | 2:54.55 | 45547 | 58651
5 | 13:02.02 | 3:24.48 | 58652 | 73999
6 | 16:26.50 | 2:40.40 | 74000 | 86039
7 | 19:07.15 | 2:47.45 | 86040 | 98609
8 | 21:54.60 | 2:29.47 | 98610 | 109831
9 | 24:24.32 | 3:15.28 | 109832 | 124484
10 | 27:39.60 | 1:59.35 | 124485 | 133444
11 | 29:39.20 | 3:16.50 | 133445 | 148194
12 | 32:55.70 | 2:36.25 | 148195 | 159919
13 | 35:32.20 | 2:28.70 | 159920 | 171089
14 | 38:01.15 | 3:44.57 | 171090 | 187946
15 | 41:45.72 | 2:10.38 | 187947 | 197734
16 | 43:56.35 | 3:37.65 | 197735 | 214074
17 | 47:34.25 | 2:01.20 | 214075 | 223169
18 | 49:35.45 | 1:20.30 | 223170 | 229199
19 | 50:56.00 | 2:55.65 | 229200 | 242389
20 | 53:51.65 | 1:34.57 | 242390 | 249496
21 | 55:26.47 | 1:54.00 | 249497 | 258046
22 | 57:20.47 | 3:17.10 | 258047 | 272831
23 | 60:37.57 | 2:34.45 | 272832 | 284426
24 | 63:12.27 | 2:24.08 | 284427 | 295234
25 | 65:36.35 | 2:11.00 | 295235 | 305059
26 | 67:47.35 | 1:42.07 | 305060 | 312716
27 | 69:29.42 | 1:19.65 | 312717 | 318706
28 | 70:49.32 | 2:33.28 | 318707 | 330209

Track 1

Filename M:\SLAM\www.slam.ws – Lossless Alternative Music\Various Artists\Die Drei von der Punkstelle Vol. 1\01. Scabies – Blöde Punks.wav

Pre-gap length 0:00:02.00

Peak level 98.8 %
Extraction speed 1.9 X
Track quality 100.0 %
Copy CRC 31BA5E25
Accurately ripped (confidence 2) [C959AA3F] (AR v2)
Copy OK

Track 2

Filename M:\SLAM\www.slam.ws – Lossless Alternative Music\Various Artists\Die Drei von der Punkstelle Vol. 1\02. Anti-Nowhere League – Fucked Up And Wasted.wav

Peak level 100.0 %
Extraction speed 2.5 X
Track quality 100.0 %
Copy CRC F8D182A7
Accurately ripped (confidence 2) [3C2DE341] (AR v2)
Copy OK

Track 3

Filename M:\SLAM\www.slam.ws – Lossless Alternative Music\Various Artists\Die Drei von der Punkstelle Vol. 1\03. Scattergun – Social Bastards.wav

Pre-gap length 0:00:00.01

Peak level 96.4 %
Extraction speed 2.6 X
Track quality 100.0 %
Copy CRC A6177345
Accurately ripped (confidence 2) [305B799A] (AR v2)
Copy OK

Track 4

Filename M:\SLAM\www.slam.ws – Lossless Alternative Music\Various Artists\Die Drei von der Punkstelle Vol. 1\04. Bullo?ks – Komm zurück zu mir.wav

Peak level 100.0 %
Extraction speed 2.7 X
Track quality 100.0 %
Copy CRC 95A926D8
Accurately ripped (confidence 2) [6B9529C0] (AR v2)
Copy OK

Track 5

Filename M:\SLAM\www.slam.ws – Lossless Alternative Music\Various Artists\Die Drei von der Punkstelle Vol. 1\05. The Pig Must Die – Ich heisse Richie.wav

Peak level 70.7 %
Extraction speed 2.9 X
Track quality 100.0 %
Copy CRC 39BF439C
Accurately ripped (confidence 2) [37D9E23B] (AR v2)
Copy OK

Track 6

Filename M:\SLAM\www.slam.ws – Lossless Alternative Music\Various Artists\Die Drei von der Punkstelle Vol. 1\06. Fuckin’ Faces – Ich habe Angst.wav

Pre-gap length 0:00:00.01

Peak level 100.0 %
Extraction speed 2.8 X
Track quality 100.0 %
Copy CRC 248F93D0
Accurately ripped (confidence 2) [61A84D66] (AR v2)
Copy OK

Track 7

Filename M:\SLAM\www.slam.ws – Lossless Alternative Music\Various Artists\Die Drei von der Punkstelle Vol. 1\07. Germ Attack – Time.wav

Pre-gap length 0:00:00.01

Peak level 99.1 %
Extraction speed 2.9 X
Track quality 100.0 %
Copy CRC B6E8A753
Accurately ripped (confidence 2) [2D94EB1B] (AR v2)
Copy OK

Track 8

Filename M:\SLAM\www.slam.ws – Lossless Alternative Music\Various Artists\Die Drei von der Punkstelle Vol. 1\08. Schwarze Schafe – Die Weber.wav

Pre-gap length 0:00:00.01

Peak level 70.7 %
Extraction speed 2.9 X
Track quality 100.0 %
Copy CRC 1D492C8D
Accurately ripped (confidence 2) [613DFC7B] (AR v2)
Copy OK

Track 9

Filename M:\SLAM\www.slam.ws – Lossless Alternative Music\Various Artists\Die Drei von der Punkstelle Vol. 1\09. N.O.E. – Andrea Doria.wav

Peak level 99.0 %
Extraction speed 3.2 X
Track quality 100.0 %
Copy CRC 019CCC6D
Accurately ripped (confidence 2) [A03CCC87] (AR v2)
Copy OK

Track 10

Filename M:\SLAM\www.slam.ws – Lossless Alternative Music\Various Artists\Die Drei von der Punkstelle Vol. 1\10. Psychotic Youth – Goldie Hawn.wav

Pre-gap length 0:00:00.01

Peak level 100.0 %
Extraction speed 2.8 X
Track quality 100.0 %
Copy CRC BA9CC93D
Accurately ripped (confidence 2) [65C7AE1A] (AR v2)
Copy OK

Track 11

Filename M:\SLAM\www.slam.ws – Lossless Alternative Music\Various Artists\Die Drei von der Punkstelle Vol. 1\11. Notdurft – Ich will nicht so sein wie ihr.wav

Pre-gap length 0:00:00.01

Peak level 97.8 %
Extraction speed 3.4 X
Track quality 100.0 %
Copy CRC 524468FF
Accurately ripped (confidence 2) [91A09F87] (AR v2)
Copy OK

Track 12

Filename M:\SLAM\www.slam.ws – Lossless Alternative Music\Various Artists\Die Drei von der Punkstelle Vol. 1\12. Popperklopper – Gewalt.wav

Pre-gap length 0:00:00.01

Peak level 99.0 %
Extraction speed 2.5 X
Track quality 99.9 %
Copy CRC A49344C8
Accurately ripped (confidence 2) [AFE5AE55] (AR v2)
Copy OK

Track 13

Filename M:\SLAM\www.slam.ws – Lossless Alternative Music\Various Artists\Die Drei von der Punkstelle Vol. 1\13. Across The Border – When Two Men Kiss.wav

Pre-gap length 0:00:00.01

Peak level 98.8 %
Extraction speed 3.2 X
Track quality 100.0 %
Copy CRC C2EF0CBF
Accurately ripped (confidence 2) [B72F06A9] (AR v2)
Copy OK

Track 14

Filename M:\SLAM\www.slam.ws – Lossless Alternative Music\Various Artists\Die Drei von der Punkstelle Vol. 1\14. Moskovskaya – Moskovskaya , Raissa.wav

Pre-gap length 0:00:00.01

Peak level 97.6 %
Extraction speed 3.1 X
Track quality 99.9 %
Copy CRC 3A6B060C
Accurately ripped (confidence 2) [3E427A51] (AR v2)
Copy OK

Track 15

Filename M:\SLAM\www.slam.ws – Lossless Alternative Music\Various Artists\Die Drei von der Punkstelle Vol. 1\15. No Respect – Loose It All.wav

Peak level 98.4 %
Extraction speed 3.2 X
Track quality 100.0 %
Copy CRC DD86FBE4
Accurately ripped (confidence 2) [7F439650] (AR v2)
Copy OK

Track 16

Filename M:\SLAM\www.slam.ws – Lossless Alternative Music\Various Artists\Die Drei von der Punkstelle Vol. 1\16. Split Image – Ich bin Ich.wav

Peak level 100.0 %
Extraction speed 3.9 X
Track quality 100.0 %
Copy CRC CFC83B34
Accurately ripped (confidence 2) [D2D1BEB4] (AR v2)
Copy OK

Track 17

Filename M:\SLAM\www.slam.ws – Lossless Alternative Music\Various Artists\Die Drei von der Punkstelle Vol. 1\17. Blind Pigs – Rotten Generation.wav

Peak level 97.1 %
Extraction speed 3.4 X
Track quality 100.0 %
Copy CRC 70770754
Accurately ripped (confidence 2) [E1AACE99] (AR v2)
Copy OK

Track 18

Filename M:\SLAM\www.slam.ws – Lossless Alternative Music\Various Artists\Die Drei von der Punkstelle Vol. 1\18. ??????????? ??????? – ???????.wav

Peak level 97.4 %
Extraction speed 2.9 X
Track quality 100.0 %
Copy CRC C0334223
Accurately ripped (confidence 2) [C69C70EB] (AR v2)
Copy OK

Track 19

Filename M:\SLAM\www.slam.ws – Lossless Alternative Music\Various Artists\Die Drei von der Punkstelle Vol. 1\19. Untergangskommando – Die Masse wütet.wav

Peak level 100.0 %
Extraction speed 4.1 X
Track quality 100.0 %
Copy CRC 7EA2341F
Accurately ripped (confidence 2) [29DBA386] (AR v2)
Copy OK

Track 20

Filename M:\SLAM\www.slam.ws – Lossless Alternative Music\Various Artists\Die Drei von der Punkstelle Vol. 1\20. Supernichts – Nur der Edekamarkt.wav

Peak level 98.6 %
Extraction speed 3.2 X
Track quality 100.0 %
Copy CRC 302A0FBE
Accurately ripped (confidence 2) [ABD3B415] (AR v2)
Copy OK

Track 21

Filename M:\SLAM\www.slam.ws – Lossless Alternative Music\Various Artists\Die Drei von der Punkstelle Vol. 1\21. Fabsi & Der Peanutsclub – Hasstag.wav

Peak level 98.8 %
Extraction speed 3.9 X
Track quality 100.0 %
Copy CRC 804F5B53
Accurately ripped (confidence 2) [CE2CD446] (AR v2)
Copy OK

Track 22

Filename M:\SLAM\www.slam.ws – Lossless Alternative Music\Various Artists\Die Drei von der Punkstelle Vol. 1\22. Richies – Lost In France.wav

Peak level 100.0 %
Extraction speed 4.0 X
Track quality 100.0 %
Copy CRC 46C661EA
Accurately ripped (confidence 2) [9E0D1063] (AR v2)
Copy OK

Track 23

Filename M:\SLAM\www.slam.ws – Lossless Alternative Music\Various Artists\Die Drei von der Punkstelle Vol. 1\23. Ad Nauseam – Amoklauf.wav

Peak level 92.4 %
Extraction speed 3.8 X
Track quality 100.0 %
Copy CRC EE5F3DCD
Accurately ripped (confidence 2) [3CE93832] (AR v2)
Copy OK

Track 24

Filename M:\SLAM\www.slam.ws – Lossless Alternative Music\Various Artists\Die Drei von der Punkstelle Vol. 1\24. Yeti Girls – Hey Babe.wav

Peak level 98.9 %
Extraction speed 3.0 X
Track quality 99.9 %
Copy CRC DC4125D8
Accurately ripped (confidence 2) [D266D914] (AR v2)
Copy OK

Track 25

Filename M:\SLAM\www.slam.ws – Lossless Alternative Music\Various Artists\Die Drei von der Punkstelle Vol. 1\25. Mr. Bubble B. – Punk Rock Show.wav

Peak level 99.9 %
Extraction speed 3.7 X
Track quality 100.0 %
Copy CRC 7F9ACF56
Accurately ripped (confidence 2) [98E7BAC2] (AR v2)
Copy OK

Track 26

Filename M:\SLAM\www.slam.ws – Lossless Alternative Music\Various Artists\Die Drei von der Punkstelle Vol. 1\26. Square The Circle – Lowdown Twist.wav

Peak level 100.0 %
Extraction speed 3.4 X
Track quality 100.0 %
Copy CRC A9EC0BE6
Accurately ripped (confidence 2) [427F64CD] (AR v2)
Copy OK

Track 27

Filename M:\SLAM\www.slam.ws – Lossless Alternative Music\Various Artists\Die Drei von der Punkstelle Vol. 1\27. Frotee Slips – Cem macht blau.wav

Peak level 99.9 %
Extraction speed 3.7 X
Track quality 100.0 %
Copy CRC 90477537
Accurately ripped (confidence 2) [9505246D] (AR v2)
Copy OK

Track 28

Filename M:\SLAM\www.slam.ws – Lossless Alternative Music\Various Artists\Die Drei von der Punkstelle Vol. 1\28. Negativ Nein – Gnadenlos.wav

Peak level 97.7 %
Extraction speed 3.4 X
Track quality 99.9 %
Copy CRC 04AC0CF3
Accurately ripped (confidence 2) [54E9218A] (AR v2)
Copy OK

All tracks accurately ripped

No errors occurred

End of status report

—- CUETools DB Plugin V2.1.6

[CTDB TOCID: SdVjesQ0iu9wsAGU70DMI2lZcsQ-] found
Submit result: SdVjesQ0iu9wsAGU70DMI2lZcsQ- has been confirmed
Track | CTDB Status
1 | (2/3) Accurately ripped
2 | (2/3) Accurately ripped
3 | (2/3) Accurately ripped
4 | (2/3) Accurately ripped
5 | (2/3) Accurately ripped
6 | (2/3) Accurately ripped
7 | (2/3) Accurately ripped
8 | (2/3) Accurately ripped
9 | (2/3) Accurately ripped
10 | (2/3) Accurately ripped
11 | (2/3) Accurately ripped
12 | (2/3) Accurately ripped
13 | (2/3) Accurately ripped
14 | (2/3) Accurately ripped
15 | (2/3) Accurately ripped
16 | (2/3) Accurately ripped
17 | (2/3) Accurately ripped
18 | (2/3) Accurately ripped
19 | (2/3) Accurately ripped
20 | (2/3) Accurately ripped
21 | (2/3) Accurately ripped
22 | (2/3) Accurately ripped
23 | (2/3) Accurately ripped
24 | (2/3) Accurately ripped
25 | (2/3) Accurately ripped
26 | (2/3) Accurately ripped
27 | (2/3) Accurately ripped
28 | (2/3) Accurately ripped

==== Log checksum D57048C3D6C220DEB2D389BC531AE91C0F2007C87D803F81336B30C13539C589 ====

REM GENRE “Punk Rock”
REM DATE 1997
REM DISCID C111321C
REM COMMENT “ExactAudioCopy v1.3”
PERFORMER “Various Artists”
TITLE “Die Drei von der Punkstelle Vol. 1”
REM COMPOSER “”
FILE “Various Artists\Die Drei von der Punkstelle Vol. 1\01. Scabies – Blöde Punks.wav” WAVE
TRACK 01 AUDIO
TITLE “Blöde Punks”
PERFORMER “Scabies”
REM COMPOSER “”
INDEX 01 00:00:00
FILE “Various Artists\Die Drei von der Punkstelle Vol. 1\02. Anti-Nowhere League – Fucked Up And Wasted.wav” WAVE
TRACK 02 AUDIO
TITLE “Fucked Up And Wasted”
PERFORMER “Anti-Nowhere League”
REM COMPOSER “”
INDEX 01 00:00:00
TRACK 03 AUDIO
TITLE “Social Bastards”
PERFORMER “Scattergun”
REM COMPOSER “”
INDEX 00 03:37:37
FILE “Various Artists\Die Drei von der Punkstelle Vol. 1\03. Scattergun – Social Bastards.wav” WAVE
INDEX 01 00:00:00
FILE “Various Artists\Die Drei von der Punkstelle Vol. 1\04. Bullo.ks – Komm zurück zu mir.wav” WAVE
TRACK 04 AUDIO
TITLE “Komm zurück zu mir”
PERFORMER “Bullo.ks”
REM COMPOSER “”
INDEX 01 00:00:00
FILE “Various Artists\Die Drei von der Punkstelle Vol. 1\05. The Pig Must Die – Ich heisse Richie.wav” WAVE
TRACK 05 AUDIO
TITLE “Ich heisse Richie”
PERFORMER “The Pig Must Die”
REM COMPOSER “”
INDEX 01 00:00:00
TRACK 06 AUDIO
TITLE “Ich habe Angst”
PERFORMER “Fuckin’ Faces”
REM COMPOSER “”
INDEX 00 03:24:47
FILE “Various Artists\Die Drei von der Punkstelle Vol. 1\06. Fuckin’ Faces – Ich habe Angst.wav” WAVE
INDEX 01 00:00:00
TRACK 07 AUDIO
TITLE “Time”
PERFORMER “Germ Attack”
REM COMPOSER “”
INDEX 00 02:40:39
FILE “Various Artists\Die Drei von der Punkstelle Vol. 1\07. Germ Attack – Time.wav” WAVE
INDEX 01 00:00:00
TRACK 08 AUDIO
TITLE “Die Weber”
PERFORMER “Schwarze Schafe”
REM COMPOSER “”
INDEX 00 02:47:44
FILE “Various Artists\Die Drei von der Punkstelle Vol. 1\08. Schwarze Schafe – Die Weber.wav” WAVE
INDEX 01 00:00:00
FILE “Various Artists\Die Drei von der Punkstelle Vol. 1\09. N.O.E. – Andrea Doria.wav” WAVE
TRACK 09 AUDIO
TITLE “Andrea Doria”
PERFORMER “N.O.E.”
REM COMPOSER “”
INDEX 01 00:00:00
TRACK 10 AUDIO
TITLE “Goldie Hawn”
PERFORMER “Psychotic Youth”
REM COMPOSER “”
INDEX 00 03:15:27
FILE “Various Artists\Die Drei von der Punkstelle Vol. 1\10. Psychotic Youth – Goldie Hawn.wav” WAVE
INDEX 01 00:00:00
TRACK 11 AUDIO
TITLE “Ich will nicht so sein wie ihr”
PERFORMER “Notdurft”
REM COMPOSER “”
INDEX 00 01:59:34
FILE “Various Artists\Die Drei von der Punkstelle Vol. 1\11. Notdurft – Ich will nicht so sein wie ihr.wav” WAVE
INDEX 01 00:00:00
TRACK 12 AUDIO
TITLE “Gewalt”
PERFORMER “Popperklopper”
REM COMPOSER “”
INDEX 00 03:16:49
FILE “Various Artists\Die Drei von der Punkstelle Vol. 1\12. Popperklopper – Gewalt.wav” WAVE
INDEX 01 00:00:00
TRACK 13 AUDIO
TITLE “When Two Men Kiss”
PERFORMER “Across The Border”
REM COMPOSER “”
INDEX 00 02:36:24
FILE “Various Artists\Die Drei von der Punkstelle Vol. 1\13. Across The Border – When Two Men Kiss.wav” WAVE
INDEX 01 00:00:00
TRACK 14 AUDIO
TITLE “Moskovskaya / Raissa”
PERFORMER “Moskovskaya”
REM COMPOSER “”
INDEX 00 02:28:69
FILE “Various Artists\Die Drei von der Punkstelle Vol. 1\14. Moskovskaya – Moskovskaya , Raissa.wav” WAVE
INDEX 01 00:00:00
FILE “Various Artists\Die Drei von der Punkstelle Vol. 1\15. No Respect – Loose It All.wav” WAVE
TRACK 15 AUDIO
TITLE “Loose It All”
PERFORMER “No Respect”
REM COMPOSER “”
INDEX 01 00:00:00
FILE “Various Artists\Die Drei von der Punkstelle Vol. 1\16. Split Image – Ich bin Ich.wav” WAVE
TRACK 16 AUDIO
TITLE “Ich bin Ich”
PERFORMER “Split Image”
REM COMPOSER “”
INDEX 01 00:00:00
FILE “Various Artists\Die Drei von der Punkstelle Vol. 1\17. Blind Pigs – Rotten Generation.wav” WAVE
TRACK 17 AUDIO
TITLE “Rotten Generation”
PERFORMER “Blind Pigs”
REM COMPOSER “”
INDEX 01 00:00:00
FILE “Various Artists\Die Drei von der Punkstelle Vol. 1\18. ……….. ……. – ……..wav” WAVE
TRACK 18 AUDIO
TITLE “…….”
PERFORMER “……….. …….”
REM COMPOSER “”
INDEX 01 00:00:00
FILE “Various Artists\Die Drei von der Punkstelle Vol. 1\19. Untergangskommando – Die Masse wütet.wav” WAVE
TRACK 19 AUDIO
TITLE “Die Masse wütet”
PERFORMER “Untergangskommando”
REM COMPOSER “”
INDEX 01 00:00:00
FILE “Various Artists\Die Drei von der Punkstelle Vol. 1\20. Supernichts – Nur der Edekamarkt.wav” WAVE
TRACK 20 AUDIO
TITLE “Nur der Edekamarkt”
PERFORMER “Supernichts”
REM COMPOSER “”
INDEX 01 00:00:00
FILE “Various Artists\Die Drei von der Punkstelle Vol. 1\21. Fabsi & Der Peanutsclub – Hasstag.wav” WAVE
TRACK 21 AUDIO
TITLE “Hasstag”
PERFORMER “Fabsi & Der Peanutsclub”
REM COMPOSER “”
INDEX 01 00:00:00
FILE “Various Artists\Die Drei von der Punkstelle Vol. 1\22. Richies – Lost In France.wav” WAVE
TRACK 22 AUDIO
TITLE “Lost In France”
PERFORMER “Richies”
REM COMPOSER “”
INDEX 01 00:00:00
FILE “Various Artists\Die Drei von der Punkstelle Vol. 1\23. Ad Nauseam – Amoklauf.wav” WAVE
TRACK 23 AUDIO
TITLE “Amoklauf”
PERFORMER “Ad Nauseam”
REM COMPOSER “”
INDEX 01 00:00:00
FILE “Various Artists\Die Drei von der Punkstelle Vol. 1\24. Yeti Girls – Hey Babe.wav” WAVE
TRACK 24 AUDIO
TITLE “Hey Babe”
PERFORMER “Yeti Girls”
REM COMPOSER “”
INDEX 01 00:00:00
FILE “Various Artists\Die Drei von der Punkstelle Vol. 1\25. Mr. Bubble B. – Punk Rock Show.wav” WAVE
TRACK 25 AUDIO
TITLE “Punk Rock Show”
PERFORMER “Mr. Bubble B.”
REM COMPOSER “”
INDEX 01 00:00:00
FILE “Various Artists\Die Drei von der Punkstelle Vol. 1\26. Square The Circle – Lowdown Twist.wav” WAVE
TRACK 26 AUDIO
TITLE “Lowdown Twist”
PERFORMER “Square The Circle”
REM COMPOSER “”
INDEX 01 00:00:00
FILE “Various Artists\Die Drei von der Punkstelle Vol. 1\27. Frotee Slips – Cem macht blau.wav” WAVE
TRACK 27 AUDIO
TITLE “Cem macht blau”
PERFORMER “Frotee Slips”
REM COMPOSER “”
INDEX 01 00:00:00
FILE “Various Artists\Die Drei von der Punkstelle Vol. 1\28. Negativ Nein – Gnadenlos.wav” WAVE
TRACK 28 AUDIO
TITLE “Gnadenlos”
PERFORMER “Negativ Nein”
REM COMPOSER “”
INDEX 01 00:00:00


Spread the Download

Leave a Reply

Your email address will not be published. Required fields are marked *

Enter the text from the image below
 

This site uses Akismet to reduce spam. Learn how your comment data is processed.