Various Artists – Chaos, Bier & Anarchie Vol. 02




Artist: Various Artists
Year: 1998
Genre: Punk
Notes: Discogs
Add. Notes:
Cover incl.: No
Encoder: FLAC
Bitrate: ~1000 kBit/s (44.1 kHz/16 Bit/s)
Log & Cue incl.: Yes
Size: 529,62 MB
Password: “slam” (without ” “)


All Downloads/Hosters are compatible

Download 1
Turbobit.net
KatFile.com
Rapidgator.net
ddl.to
Download 2
Turbobit.net
KatFile.com
Rapidgator.net
ddl.to

Tracklist:

1. Planlos Blut 2:14
2. Der Dicke Polizist Deutschland 97 2:00
3. DSE (2) Alptraum 1:47
4. Die Kinder Vom Bahnhofsklo 10.000 Gramm 1:37
5. Joghurt Ohne Gräten Knäckebrotcowboy 4:02
6. Daily Terror Rebellen Der Straße 3:20
7. Das Untergangskommando* Heiraten 3:22
8. E.G.A.L. Steh Auf 3:28
9. Die Experten* Wird Alles Schön 2:06
10. Die Kolporteure* Zu Spät Für Diese Zeit  2:10
11. Persiflage Zerbrochene Träume 2:57
12. Die Elenden Deine Worte 3:19
13. Fuckin Faces Kranke Liebe 2:25
14. E.G.A.L. Wiedermal 3:49
15. Die Kolporteure* Zuversicht 1:23
16. Joghurt Ohne Gräten Martini Oder Pizza 3:31
17. Die Kinder Vom Bahnhofsklo Ein Hoch Auf Unsere Zeit 
1:39
18. Spass Dabei Sommer, Sonne, Badezeit 2:54
19. Das Untergangskommando* Nummer X  2:58
20. Die Kinder Vom Bahnhofsklo Kriegsparanoia  2:27
21. Planlos Scheissegal 3:28
22. Dritte Wahl Wut 2:48
23. DSE (2) Zerstört 2:28
24. S.I.K. Krieg & Frieden 4:15
25. Betontod Achterbahn 3:32
26. Zaunpfahl Feuer Frei 2:08

EAC-Log, CUE-Sheed & NFO:

Click to open spoiler
Exact Audio Copy V1.3 from 2. September 2016

EAC extraction logfile from 5. March 2019, 18:51

Various Artists / Chaos, Bier & Anarchie Vol.02

Used drive : HL-DT-STDVDRAM GUE0N Adapter: 1 ID: 0

Read mode : Secure
Utilize accurate stream : Yes
Defeat audio cache : Yes
Make use of C2 pointers : No

Read offset correction : 102
Overread into Lead-In and Lead-Out : No
Fill up missing offset samples with silence : Yes
Delete leading and trailing silent blocks : No
Null samples used in CRC calculations : Yes
Used interface : Native Win32 interface for Win NT & 2000
Gap handling : Appended to previous track

Used output format : User Defined Encoder
Selected bitrate : 1024 kBit/s
Quality : High
Add ID3 tag : No
Command line compressor : C:\Program Files (x86)\Exact Audio Copy\FLAC\FLAC.EXE
Additional command line options : -8 -V -T “ARTIST=%artist%” -T “TITLE=%title%” -T “ALBUM=%albumtitle%” -T “DATE=%year%” -T “TRACKNUMBER=%tracknr%” -T “GENRE=%genre%” -T “COMMENT=%comment%” -T “BAND=%albuminterpret%” -T “COMPOSER=%composer%” %haslyrics%–tag-from-file=LYRICS=”%lyricsfile%”%haslyrics% -T “DISCNUMBER=%cdnumber%” -T “TOTALDISCS=%totalcds%” -T “TOTALTRACKS=%numtracks%” %hascover%–picture=”%coverfile%”%hascover% %source% -o %dest%

TOC of the extracted CD

Track | Start | Length | Start sector | End sector
———————————————————
1 | 0:00.00 | 2:14.32 | 0 | 10081
2 | 2:14.32 | 2:00.06 | 10082 | 19087
3 | 4:14.38 | 1:47.02 | 19088 | 27114
4 | 6:01.40 | 1:37.43 | 27115 | 34432
5 | 7:39.08 | 4:02.26 | 34433 | 52608
6 | 11:41.34 | 3:20.40 | 52609 | 67648
7 | 15:01.74 | 3:22.27 | 67649 | 82825
8 | 18:24.26 | 3:28.65 | 82826 | 98490
9 | 21:53.16 | 2:06.20 | 98491 | 107960
10 | 23:59.36 | 2:10.39 | 107961 | 117749
11 | 26:10.00 | 2:57.59 | 117750 | 131083
12 | 29:07.59 | 3:19.35 | 131084 | 146043
13 | 32:27.19 | 2:25.59 | 146044 | 156977
14 | 34:53.03 | 3:49.57 | 156978 | 174209
15 | 38:42.60 | 1:23.67 | 174210 | 180501
16 | 40:06.52 | 3:31.25 | 180502 | 196351
17 | 43:38.02 | 1:39.20 | 196352 | 203796
18 | 45:17.22 | 2:54.44 | 203797 | 216890
19 | 48:11.66 | 2:58.06 | 216891 | 230246
20 | 51:09.72 | 2:27.58 | 230247 | 241329
21 | 53:37.55 | 3:28.47 | 241330 | 256976
22 | 57:06.27 | 2:48.00 | 256977 | 269576
23 | 59:54.27 | 2:27.72 | 269577 | 280673
24 | 62:22.24 | 4:14.74 | 280674 | 299797
25 | 66:37.23 | 3:32.47 | 299798 | 315744
26 | 70:09.70 | 2:07.71 | 315745 | 325340

Track 1

Filename D:\Eigene Musik\Various Artists\Chaos, Bier & Anarchie Vol.02\01. Planlos – Blut.wav

Pre-gap length 0:00:02.00

Peak level 97.7 %
Extraction speed 1.4 X
Track quality 99.9 %
Copy CRC 1B4D9076
Cannot be verified as accurate (confidence 1) [CC3AF631], AccurateRip returned [4B8748A7] (AR v2)
Copy OK

Track 2

Filename D:\Eigene Musik\Various Artists\Chaos, Bier & Anarchie Vol.02\02. Der Dicke Polizist – Deutschland ’97.wav

Peak level 100.0 %
Extraction speed 2.0 X
Track quality 100.0 %
Copy CRC 8F19791B
Cannot be verified as accurate (confidence 1) [E90E5B20], AccurateRip returned [5D48DB16] (AR v2)
Copy OK

Track 3

Filename D:\Eigene Musik\Various Artists\Chaos, Bier & Anarchie Vol.02\03. DSE – Alptraum.wav

Peak level 100.0 %
Extraction speed 1.8 X
Track quality 100.0 %
Copy CRC 500E8675
Cannot be verified as accurate (confidence 1) [A40EA981], AccurateRip returned [F1E0113C] (AR v2)
Copy OK

Track 4

Filename D:\Eigene Musik\Various Artists\Chaos, Bier & Anarchie Vol.02\04. Die Kinder vom Bahnhofsklo – 10.000 Gramm.wav

Peak level 100.0 %
Extraction speed 1.4 X
Track quality 99.8 %
Copy CRC 9531E96E
Cannot be verified as accurate (confidence 1) [64ACFD46], AccurateRip returned [B570B76C] (AR v2)
Copy OK

Track 5

Filename D:\Eigene Musik\Various Artists\Chaos, Bier & Anarchie Vol.02\05. Joghurt ohne Gräten – Knäckebrotcowboy.wav

Peak level 100.0 %
Extraction speed 2.3 X
Track quality 99.9 %
Copy CRC 0ABB38AD
Cannot be verified as accurate (confidence 1) [41F3A3D2], AccurateRip returned [D00283E8] (AR v2)
Copy OK

Track 6

Filename D:\Eigene Musik\Various Artists\Chaos, Bier & Anarchie Vol.02\06. Daily Terror – Rebellen der Straße.wav

Peak level 99.8 %
Extraction speed 2.3 X
Track quality 99.9 %
Copy CRC 30B4F1B2
Cannot be verified as accurate (confidence 1) [5F3DBDF5], AccurateRip returned [282A5F0E] (AR v2)
Copy OK

Track 7

Filename D:\Eigene Musik\Various Artists\Chaos, Bier & Anarchie Vol.02\07. Das Untergangskommando – Heiraten.wav

Peak level 98.8 %
Extraction speed 2.9 X
Track quality 100.0 %
Copy CRC ECB32993
Cannot be verified as accurate (confidence 1) [FAC946C1], AccurateRip returned [40689E26] (AR v2)
Copy OK

Track 8

Filename D:\Eigene Musik\Various Artists\Chaos, Bier & Anarchie Vol.02\08. E.G.A.L – Steh auf.wav

Peak level 89.8 %
Extraction speed 2.8 X
Track quality 100.0 %
Copy CRC 79738233
Cannot be verified as accurate (confidence 1) [D802FF08], AccurateRip returned [185F5D2C] (AR v2)
Copy OK

Track 9

Filename D:\Eigene Musik\Various Artists\Chaos, Bier & Anarchie Vol.02\09. Die Experten – Wird alles schön.wav

Peak level 100.0 %
Extraction speed 2.9 X
Track quality 100.0 %
Copy CRC 3D3CE52F
Cannot be verified as accurate (confidence 1) [1D87B9D5], AccurateRip returned [944CBF3C] (AR v2)
Copy OK

Track 10

Filename D:\Eigene Musik\Various Artists\Chaos, Bier & Anarchie Vol.02\10. Die Kolporteure – Zu spät für diese Zeit.wav

Peak level 100.0 %
Extraction speed 2.9 X
Track quality 100.0 %
Copy CRC D7285EC7
Cannot be verified as accurate (confidence 1) [B03B8D7C], AccurateRip returned [9B2B20C1] (AR v2)
Copy OK

Track 11

Filename D:\Eigene Musik\Various Artists\Chaos, Bier & Anarchie Vol.02\11. Persiflage – Zerbrochene Träume.wav

Peak level 98.1 %
Extraction speed 3.3 X
Track quality 100.0 %
Copy CRC 5F19D36F
Cannot be verified as accurate (confidence 1) [B3A3BD52], AccurateRip returned [F247E743] (AR v2)
Copy OK

Track 12

Filename D:\Eigene Musik\Various Artists\Chaos, Bier & Anarchie Vol.02\12. Die Elenden – Deine Worte.wav

Peak level 100.0 %
Extraction speed 3.4 X
Track quality 100.0 %
Copy CRC 882A3188
Cannot be verified as accurate (confidence 1) [30971DF2], AccurateRip returned [21C3CB5B] (AR v2)
Copy OK

Track 13

Filename D:\Eigene Musik\Various Artists\Chaos, Bier & Anarchie Vol.02\13. Fuckin’ Faces – Kranke Liebe.wav

Peak level 100.0 %
Extraction speed 3.4 X
Track quality 100.0 %
Copy CRC 4FCD07C8
Cannot be verified as accurate (confidence 1) [5A4E00F3], AccurateRip returned [A93E3678] (AR v2)
Copy OK

Track 14

Filename D:\Eigene Musik\Various Artists\Chaos, Bier & Anarchie Vol.02\14. E.G.A.L – Wiedermal.wav

Peak level 100.0 %
Extraction speed 3.1 X
Track quality 99.9 %
Copy CRC E22B5200
Cannot be verified as accurate (confidence 1) [5A33E6BD], AccurateRip returned [6A0A3892] (AR v2)
Copy OK

Track 15

Filename D:\Eigene Musik\Various Artists\Chaos, Bier & Anarchie Vol.02\15. Die Kolporteure – Zuversicht.wav

Peak level 100.0 %
Extraction speed 2.8 X
Track quality 100.0 %
Copy CRC 37C99938
Cannot be verified as accurate (confidence 1) [0912213F], AccurateRip returned [4D1D66F5] (AR v2)
Copy OK

Track 16

Filename D:\Eigene Musik\Various Artists\Chaos, Bier & Anarchie Vol.02\16. Joghurt ohne Gräten – Martini oder Pizza.wav

Peak level 100.0 %
Extraction speed 3.4 X
Track quality 100.0 %
Copy CRC 7AEF4F33
Cannot be verified as accurate (confidence 1) [E816D2BF], AccurateRip returned [A5CCB8B1] (AR v2)
Copy OK

Track 17

Filename D:\Eigene Musik\Various Artists\Chaos, Bier & Anarchie Vol.02\17. Die Kinder vom Bahnhofsklo – Ein Hoch auf unsere Zeit.wav

Peak level 100.0 %
Extraction speed 2.3 X
Track quality 99.8 %
Copy CRC 3AFD4B62
Cannot be verified as accurate (confidence 1) [9F0C6156], AccurateRip returned [706FB931] (AR v2)
Copy OK

Track 18

Filename D:\Eigene Musik\Various Artists\Chaos, Bier & Anarchie Vol.02\18. Spass dabei – Sommer, Sonne, Badezeit.wav

Peak level 99.0 %
Extraction speed 3.0 X
Track quality 99.9 %
Copy CRC 75CC29A0
Cannot be verified as accurate (confidence 1) [9DC3E81D], AccurateRip returned [8D2F359D] (AR v2)
Copy OK

Track 19

Filename D:\Eigene Musik\Various Artists\Chaos, Bier & Anarchie Vol.02\19. Das Untergangskommando – Nummer X.wav

Peak level 96.6 %
Extraction speed 3.9 X
Track quality 100.0 %
Copy CRC A4610934
Cannot be verified as accurate (confidence 1) [67DA8BB6], AccurateRip returned [1717AC3A] (AR v2)
Copy OK

Track 20

Filename D:\Eigene Musik\Various Artists\Chaos, Bier & Anarchie Vol.02\20. Die Kinder vom Bahnhofsklo – Kriegsparanoia.wav

Peak level 100.0 %
Extraction speed 3.8 X
Track quality 100.0 %
Copy CRC 8F881910
Cannot be verified as accurate (confidence 1) [15AAF4B0], AccurateRip returned [3456E1ED] (AR v2)
Copy OK

Track 21

Filename D:\Eigene Musik\Various Artists\Chaos, Bier & Anarchie Vol.02\21. Planlos – Scheißegal.wav

Peak level 98.2 %
Extraction speed 4.2 X
Track quality 100.0 %
Copy CRC 22A9A716
Cannot be verified as accurate (confidence 1) [E0975C9A], AccurateRip returned [163EEAA3] (AR v2)
Copy OK

Track 22

Filename D:\Eigene Musik\Various Artists\Chaos, Bier & Anarchie Vol.02\22. Dritte Wahl – Wut.wav

Peak level 99.8 %
Extraction speed 3.2 X
Track quality 99.9 %
Copy CRC 3134F0AA
Cannot be verified as accurate (confidence 1) [018A040C], AccurateRip returned [ACDB3CF5] (AR v2)
Copy OK

Track 23

Filename D:\Eigene Musik\Various Artists\Chaos, Bier & Anarchie Vol.02\23. DSE – Zerstört.wav

Peak level 89.8 %
Extraction speed 3.9 X
Track quality 100.0 %
Copy CRC 16E6BD21
Cannot be verified as accurate (confidence 1) [63C6C56F], AccurateRip returned [4D8BB47A] (AR v2)
Copy OK

Track 24

Filename D:\Eigene Musik\Various Artists\Chaos, Bier & Anarchie Vol.02\24. S.i.K. – Krieg und Frieden.wav

Peak level 100.0 %
Extraction speed 3.8 X
Track quality 99.9 %
Copy CRC 05C03D7A
Cannot be verified as accurate (confidence 1) [515C82FF], AccurateRip returned [8154EC13] (AR v2)
Copy OK

Track 25

Filename D:\Eigene Musik\Various Artists\Chaos, Bier & Anarchie Vol.02\25. Betontot – Achterbahn.wav

Peak level 99.8 %
Extraction speed 4.6 X
Track quality 100.0 %
Copy CRC 0F82307D
Cannot be verified as accurate (confidence 1) [B467045A], AccurateRip returned [D1B69B20] (AR v2)
Copy OK

Track 26

Filename D:\Eigene Musik\Various Artists\Chaos, Bier & Anarchie Vol.02\26. Zaunpfahl – Feuer frei.wav

Peak level 100.0 %
Extraction speed 4.0 X
Track quality 100.0 %
Copy CRC BE57CBDB
Cannot be verified as accurate (confidence 1) [2AC378D9], AccurateRip returned [539056EB] (AR v2)
Copy OK

No tracks could be verified as accurate
You may have a different pressing from the one(s) in the database

No errors occurred

End of status report

—- CUETools DB Plugin V2.1.6

[CTDB TOCID: GGyUku5IDRbYKcU4UqRwNHIuUO4-] found
Submit result: GGyUku5IDRbYKcU4UqRwNHIuUO4- has been confirmed
Track | CTDB Status
1 | (5/6) Accurately ripped
2 | (5/6) Accurately ripped
3 | (5/6) Accurately ripped
4 | (5/6) Accurately ripped
5 | (4/6) Accurately ripped
6 | (5/6) Accurately ripped
7 | (5/6) Accurately ripped
8 | (5/6) Accurately ripped
9 | (5/6) Accurately ripped
10 | (5/6) Accurately ripped
11 | (5/6) Accurately ripped
12 | (5/6) Accurately ripped
13 | (5/6) Accurately ripped
14 | (5/6) Accurately ripped
15 | (5/6) Accurately ripped
16 | (5/6) Accurately ripped
17 | (5/6) Accurately ripped
18 | (5/6) Accurately ripped
19 | (5/6) Accurately ripped
20 | (5/6) Accurately ripped
21 | (5/6) Accurately ripped
22 | (5/6) Accurately ripped
23 | (5/6) Accurately ripped
24 | (5/6) Accurately ripped
25 | (5/6) Accurately ripped
26 | (5/6) Accurately ripped

==== Log checksum DE8B2B9D310835BC629E61CE8F4F1723D6ECD960F32C4F1414667D6212ABC94E ====

————————————-

REM GENRE “Punk Rock”
REM DATE 1998
REM DISCID 7410F11A
REM COMMENT “ExactAudioCopy v1.3”
CATALOG 0000000000000
PERFORMER “Various Artists”
TITLE “Chaos, Bier & Anarchie Vol.02”
REM COMPOSER “”
FILE “Various Artists\Chaos, Bier & Anarchie Vol.02\01. Planlos – Blut.wav” WAVE
TRACK 01 AUDIO
TITLE “Blut”
PERFORMER “Planlos”
REM COMPOSER “”
INDEX 01 00:00:00
FILE “Various Artists\Chaos, Bier & Anarchie Vol.02\02. Der Dicke Polizist – Deutschland ’97.wav” WAVE
TRACK 02 AUDIO
TITLE “Deutschland ’97”
PERFORMER “Der Dicke Polizist”
REM COMPOSER “”
INDEX 01 00:00:00
FILE “Various Artists\Chaos, Bier & Anarchie Vol.02\03. DSE – Alptraum.wav” WAVE
TRACK 03 AUDIO
TITLE “Alptraum”
PERFORMER “DSE”
REM COMPOSER “”
INDEX 01 00:00:00
FILE “Various Artists\Chaos, Bier & Anarchie Vol.02\04. Die Kinder vom Bahnhofsklo – 10.000 Gramm.wav” WAVE
TRACK 04 AUDIO
TITLE “10.000 Gramm”
PERFORMER “Die Kinder vom Bahnhofsklo”
REM COMPOSER “”
INDEX 01 00:00:00
FILE “Various Artists\Chaos, Bier & Anarchie Vol.02\05. Joghurt ohne Gräten – Knäckebrotcowboy.wav” WAVE
TRACK 05 AUDIO
TITLE “Knäckebrotcowboy”
PERFORMER “Joghurt ohne Gräten”
REM COMPOSER “”
INDEX 01 00:00:00
FILE “Various Artists\Chaos, Bier & Anarchie Vol.02\06. Daily Terror – Rebellen der Straße.wav” WAVE
TRACK 06 AUDIO
TITLE “Rebellen der Straße”
PERFORMER “Daily Terror”
REM COMPOSER “”
INDEX 01 00:00:00
FILE “Various Artists\Chaos, Bier & Anarchie Vol.02\07. Das Untergangskommando – Heiraten.wav” WAVE
TRACK 07 AUDIO
TITLE “Heiraten”
PERFORMER “Das Untergangskommando”
REM COMPOSER “”
INDEX 01 00:00:00
FILE “Various Artists\Chaos, Bier & Anarchie Vol.02\08. E.G.A.L – Steh auf.wav” WAVE
TRACK 08 AUDIO
TITLE “Steh auf”
PERFORMER “E.G.A.L”
REM COMPOSER “”
INDEX 01 00:00:00
FILE “Various Artists\Chaos, Bier & Anarchie Vol.02\09. Die Experten – Wird alles schön.wav” WAVE
TRACK 09 AUDIO
TITLE “Wird alles schön”
PERFORMER “Die Experten”
REM COMPOSER “”
INDEX 01 00:00:00
FILE “Various Artists\Chaos, Bier & Anarchie Vol.02\10. Die Kolporteure – Zu spät für diese Zeit.wav” WAVE
TRACK 10 AUDIO
TITLE “Zu spät für diese Zeit”
PERFORMER “Die Kolporteure”
REM COMPOSER “”
INDEX 01 00:00:00
FILE “Various Artists\Chaos, Bier & Anarchie Vol.02\11. Persiflage – Zerbrochene Träume.wav” WAVE
TRACK 11 AUDIO
TITLE “Zerbrochene Träume”
PERFORMER “Persiflage”
REM COMPOSER “”
INDEX 01 00:00:00
FILE “Various Artists\Chaos, Bier & Anarchie Vol.02\12. Die Elenden – Deine Worte.wav” WAVE
TRACK 12 AUDIO
TITLE “Deine Worte”
PERFORMER “Die Elenden”
REM COMPOSER “”
INDEX 01 00:00:00
FILE “Various Artists\Chaos, Bier & Anarchie Vol.02\13. Fuckin’ Faces – Kranke Liebe.wav” WAVE
TRACK 13 AUDIO
TITLE “Kranke Liebe”
PERFORMER “Fuckin’ Faces”
REM COMPOSER “”
INDEX 01 00:00:00
FILE “Various Artists\Chaos, Bier & Anarchie Vol.02\14. E.G.A.L – Wiedermal.wav” WAVE
TRACK 14 AUDIO
TITLE “Wiedermal”
PERFORMER “E.G.A.L”
REM COMPOSER “”
INDEX 01 00:00:00
FILE “Various Artists\Chaos, Bier & Anarchie Vol.02\15. Die Kolporteure – Zuversicht.wav” WAVE
TRACK 15 AUDIO
TITLE “Zuversicht”
PERFORMER “Die Kolporteure”
REM COMPOSER “”
INDEX 01 00:00:00
FILE “Various Artists\Chaos, Bier & Anarchie Vol.02\16. Joghurt ohne Gräten – Martini oder Pizza.wav” WAVE
TRACK 16 AUDIO
TITLE “Martini oder Pizza”
PERFORMER “Joghurt ohne Gräten”
REM COMPOSER “”
INDEX 01 00:00:00
FILE “Various Artists\Chaos, Bier & Anarchie Vol.02\17. Die Kinder vom Bahnhofsklo – Ein Hoch auf unsere Zeit.wav” WAVE
TRACK 17 AUDIO
TITLE “Ein Hoch auf unsere Zeit”
PERFORMER “Die Kinder vom Bahnhofsklo”
REM COMPOSER “”
INDEX 01 00:00:00
FILE “Various Artists\Chaos, Bier & Anarchie Vol.02\18. Spass dabei – Sommer, Sonne, Badezeit.wav” WAVE
TRACK 18 AUDIO
TITLE “Sommer, Sonne, Badezeit”
PERFORMER “Spass dabei”
REM COMPOSER “”
INDEX 01 00:00:00
FILE “Various Artists\Chaos, Bier & Anarchie Vol.02\19. Das Untergangskommando – Nummer X.wav” WAVE
TRACK 19 AUDIO
TITLE “Nummer X”
PERFORMER “Das Untergangskommando”
REM COMPOSER “”
INDEX 01 00:00:00
FILE “Various Artists\Chaos, Bier & Anarchie Vol.02\20. Die Kinder vom Bahnhofsklo – Kriegsparanoia.wav” WAVE
TRACK 20 AUDIO
TITLE “Kriegsparanoia”
PERFORMER “Die Kinder vom Bahnhofsklo”
REM COMPOSER “”
INDEX 01 00:00:00
FILE “Various Artists\Chaos, Bier & Anarchie Vol.02\21. Planlos – Scheißegal.wav” WAVE
TRACK 21 AUDIO
TITLE “Scheißegal”
PERFORMER “Planlos”
REM COMPOSER “”
INDEX 01 00:00:00
FILE “Various Artists\Chaos, Bier & Anarchie Vol.02\22. Dritte Wahl – Wut.wav” WAVE
TRACK 22 AUDIO
TITLE “Wut”
PERFORMER “Dritte Wahl”
REM COMPOSER “”
INDEX 01 00:00:00
FILE “Various Artists\Chaos, Bier & Anarchie Vol.02\23. DSE – Zerstört.wav” WAVE
TRACK 23 AUDIO
TITLE “Zerstört”
PERFORMER “DSE”
REM COMPOSER “”
INDEX 01 00:00:00
FILE “Various Artists\Chaos, Bier & Anarchie Vol.02\24. S.i.K. – Krieg und Frieden.wav” WAVE
TRACK 24 AUDIO
TITLE “Krieg und Frieden”
PERFORMER “S.i.K.”
REM COMPOSER “”
INDEX 01 00:00:00
FILE “Various Artists\Chaos, Bier & Anarchie Vol.02\25. Betontot – Achterbahn.wav” WAVE
TRACK 25 AUDIO
TITLE “Achterbahn”
PERFORMER “Betontot”
REM COMPOSER “”
INDEX 01 00:00:00
FILE “Various Artists\Chaos, Bier & Anarchie Vol.02\26. Zaunpfahl – Feuer frei.wav” WAVE
TRACK 26 AUDIO
TITLE “Feuer frei”
PERFORMER “Zaunpfahl”
REM COMPOSER “”
INDEX 01 00:00:00


Leave a Reply

Your email address will not be published. Required fields are marked *

This site uses Akismet to reduce spam. Learn how your comment data is processed.