Various Artists – Bored Teenagers Vol. 3: 16 Great British Punk Originals ’77-’82




Artist: Various Artists
Year: 2003
Genre: Punk
Notes: Discogs
Add. Notes:
Cover incl.: Yes
Encoder: FLAC
Bitrate: ~900 kBit/s (44.1 kHz/16 Bit/s)
Log & Cue incl.: Yes
Size: 335,06 MB
Password: “slam” (without ” “)


All Downloads/Hosters are compatible

Download 1
Turbobit.net
Rapidgator.net
KatFile.com
UploadRar.com
Download 2
Turbobit.net
Rapidgator.net
KatFile.com
UploadRar.com
Download 3
Turbobit.net
Rapidgator.net
KatFile.com
UploadRar.com

Tracklist:

1. The Perfectors 	YT502951D 	
2. The Perfectors 	Mysterons 	
3. The Perfectors 	New Wave News 	
4. The Injectors (2) 	Frustration 	
5. The Injectors (2) 	Welcome To Our Club 
6. Xpress (3) 	All Dressed Up (No War To Go) 
7. Xpress (3) 	Whatever Happened To Fashion? 
8. Street People (2) 	Personal Values 	
9. Quality Drivel 	Sale Of The Century 	
10. Quality Drivel 	Subliminal Cuts 	
11. No Way (4) 	Crazy Carol Carter 	
12. No Way (4) 	Destiny 	
13. The Mysterious Footsteps* 	Brain Damage 
14. Model Mania 	No Pride Slow Suicide 	
15. The Most (4) 	Carefree 	
16. Clay Fav 	Air Lakeland

EAC-Log, CUE-Sheed & NFO:

Click to open spoiler
Exact Audio Copy V0.99 prebeta 4 from 23. January 2008

Отчёт EAC об извлечении, выполненном 5. июля 2009, 23:19

Various / Bored Teenagers Vol 3 (16 Great British Punk Originals ’77-82)

Дисковод: PIONEER DVD-RW DVR-112D Adapter: 3 ID: 0

Режим чтения : Достоверность
Использование точного потока : Да
Отключение кэша аудио : Да
Использование указателей C2 : Нет

Коррекция смещения при чтении : 48
Способность читать области Lead-in и Lead-out : Нет
Заполнение пропущенных сэмплов тишиной : Да
Удаление блоков с тишиной в начале и конце : Нет
При вычислениях CRC использовались нулевые сэмплы : Да
Интерфейс : Встроенный Win32-интерфейс для Win NT/2000

Выходной формат : Внутренние WAV-операции
Формат сэмплов : 44.100 Гц; 16 бит; стерео

TOC извлечённого CD

Трек | Старт | Длительность | Начальный сектор | Конечный сектор
———————————————————————
1 | 0:00.00 | 2:44.31 | 0 | 12330
2 | 2:44.31 | 2:42.60 | 12331 | 24540
3 | 5:27.16 | 3:06.74 | 24541 | 38564
4 | 8:34.15 | 3:24.33 | 38565 | 53897
5 | 11:58.48 | 2:36.65 | 53898 | 65662
6 | 14:35.38 | 3:18.51 | 65663 | 80563
7 | 17:54.14 | 2:56.17 | 80564 | 93780
8 | 20:50.31 | 3:22.16 | 93781 | 108946
9 | 24:12.47 | 3:28.14 | 108947 | 124560
10 | 27:40.61 | 3:23.40 | 124561 | 139825
11 | 31:04.26 | 2:51.21 | 139826 | 152671
12 | 33:55.47 | 3:59.46 | 152672 | 170642
13 | 37:55.18 | 3:38.16 | 170643 | 187008
14 | 41:33.34 | 3:48.01 | 187009 | 204109
15 | 45:21.35 | 2:30.41 | 204110 | 215400
16 | 47:52.01 | 3:23.48 | 215401 | 230673

Характеристики диапазона извлечения и сообщения об ошибках

Выбранный диапазон

Имя файла F:\Upload\V.A.- Bored Teenagers Vol 3 (16 Great British Punk Originals ’77-82)\Various – Bored Teenagers Vol 3 (16 Great British Punk Originals ’77-82).wav

Пиковый уровень 96.5 %
Качество диапазона 100.0 %
CRC копии 3B8DCB8E
Копирование… OK

Ошибок не произошло

Конец отчёта

REM DATE 2003
REM DISCID E70C0310
REM COMMENT “ExactAudioCopy v0.99pb4”
PERFORMER “Various”
TITLE “Bored Teenagers Vol 3 (16 Great British Punk Originals ’77-82)”
FILE “Various – Bored Teenagers Vol 3 (16 Great British Punk Originals ’77-82).wav” WAVE
TRACK 01 AUDIO
TITLE “The Perfectors – YT502951D”
PERFORMER “The Perfectors – YT502951D”
INDEX 01 00:00:00
TRACK 02 AUDIO
TITLE “The Perfectors – Mysterons”
PERFORMER “The Perfectors – Mysterons”
INDEX 01 02:44:31
TRACK 03 AUDIO
TITLE “The Perfectors – New Wave News”
PERFORMER “The Perfectors – New Wave News”
INDEX 01 05:27:16
TRACK 04 AUDIO
TITLE “The Injectors – Frustration”
PERFORMER “The Injectors – Frustration”
INDEX 01 08:34:15
TRACK 05 AUDIO
TITLE “The Injectors – Welcome To The Club”
PERFORMER “The Injectors – Welcome To The Club”
INDEX 01 11:58:48
TRACK 06 AUDIO
TITLE “Xpress – All Dressed (No War To Go)”
PERFORMER “Xpress – All Dressed (No War To Go)”
INDEX 01 14:35:38
TRACK 07 AUDIO
TITLE “Xpress – Whatever Happened To Fashion ”
PERFORMER “Xpress – Whatever Happened To Fashion ”
INDEX 01 17:54:14
TRACK 08 AUDIO
TITLE “Street People – Personal Values”
PERFORMER “Street People – Personal Values”
INDEX 01 20:50:31
TRACK 09 AUDIO
TITLE “Quality Drivel – Sale Of The Century”
PERFORMER “Quality Drivel – Sale Of The Century”
INDEX 01 24:12:47
TRACK 10 AUDIO
TITLE “Quality Drivel – Subliminal Cuts”
PERFORMER “Quality Drivel – Subliminal Cuts”
INDEX 01 27:40:61
TRACK 11 AUDIO
TITLE “No Way – Crazy Carol Carter”
PERFORMER “No Way – Crazy Carol Carter”
INDEX 01 31:04:26
TRACK 12 AUDIO
TITLE “No Way – Destiny”
PERFORMER “No Way – Destiny”
INDEX 01 33:55:47
TRACK 13 AUDIO
TITLE “The Mysterious Footsteps – Brain Damage”
PERFORMER “The Mysterious Footsteps – Brain Damage”
INDEX 01 37:55:18
TRACK 14 AUDIO
TITLE “Model Mania – No Pride Slow Suicide”
PERFORMER “Model Mania – No Pride Slow Suicide”
INDEX 01 41:33:34
TRACK 15 AUDIO
TITLE “The Most – Carefree”
PERFORMER “The Most – Carefree”
INDEX 01 45:21:35
TRACK 16 AUDIO
TITLE “Clay Fav – Air Lakeland”
PERFORMER “Clay Fav – Air Lakeland”
INDEX 01 47:52:01


Leave a Reply

Your email address will not be published. Required fields are marked *

This site uses Akismet to reduce spam. Learn how your comment data is processed.