Various Artists – Agitprop. The Politics Of Punk




Artist: Various Artists
Year: 1996
Genre: Punk
Notes: Discogs
Add. Notes:
Cover incl.: Yes
Encoder: FLAC
Bitrate: ~900 kBit/s (44.1 kHz/16 Bit/s)
Log & Cue incl.: Yes
Size: 1315,98 MB
Password: “slam” (without ” “)


All Downloads/Hosters are compatible

Download 1
Turbobit.net
Rapidgator.net
UploadEver.com
JustUpload.io
HexUpload.net
Download 2
Turbobit.net
Rapidgator.net
UploadEver.com
JustUpload.io
HexUpload.net
Download 3
Turbobit.net
Rapidgator.net
UploadEver.com
JustUpload.io
HexUpload.net

Tracklist:

VOL 1
1-1 - Ex Pistols* 	Land Of Hope And Glory 	
1-2 - The Mekons 	Fight The Cuts 	
1-3 - Redskins 	Unionize 	
1-4 - Billy Bragg 	It Says Here 	
1-5 - Penetration (2) 	Don't Dictate 	
1-6 - Poison Girls 	Old Tart 	
1-7 - The 3 Johns* 	Death Of The Europeans 	
1-8 - New Model Army 	Spirit Of The Falklands 
1-9 - Joolz 	Paved With Gold 	
1-10 - Morgans* 	Atishoo 	
1-11 - Dead Kennedys 	Chemical Warfare 	
1-12 - Angelic Upstarts 	The Murder Of Liddle Towers 	
1-13 - Patrik Fitzgerald 	Irrelevant Battles 	
1-14 - Newtown Neurotics 	No Respect 	
1-15 - Stiff Little Fingers 	Suspect Device (Live) 	
1-16 - Chelsea (2) 	Right To Work 	
1-17 - Chaos UK 	Selfish Few 	
1-18 - Chaotic Dischord 	Fuck Religion, Fuck Politics, Fuck The Lot Of You 	
1-19 - The Exploited 	Hitler's In The Charts Again 
	
VOL 2
2-1 - The Sex Pistols* 	Submission 	
2-2 - Spizz 	Soldier Soldier 	
2-3 - Notsensibles 	(Im Love With) Margaret Thatcher 	
2-4 - Menace (7) 	GLC 	
2-5 - Red London 	CND 	
2-6 - MC5 	Kick Out The Jams 	
2-7 - Violators (2) 	Govermment Stinks 	
2-8 - Sham 69 	If The Kids Are United 	
2-9 - Damned* 	Gun Fury 	
2-10 - Tom Robinson 	Glad To Be Gay'94 	
2-11 - Billy Bragg 	Between The Wars 	
2-12 - UK Subs 	Fascist Regime 	
2-13 - Anti Nowhere League* 	Streets Of London 	
2-14 - Stiff Little Fingers 	Alternative Ulster (Live) 	
2-15 - Angelic Upstarts 	Solidarity 	
2-16 - Poison Girls 	Persons Unknown 	
2-17 - The 3 Johns* 	Fruit Flies 	
2-18 - Newtown Neurotics 	Living With Unemployment 	
2-19 - Anti Pasti* 	No Govermment 	
2-20 - Captain Sensible 	Smash It Up 	

VOL 3
3-1 - Sex Pistols 	Anarchy In The UK 	
3-2 - The Exploited 	Class War 	
3-3 - The Varukers 	Protest And Survive 	
3-4 - Threats 	Politicians And Ministers 	
3-5 - Riot Squad (2) 	Fuck The Tories 	
3-6 - The Adicts 	How Sad 	
3-7 - Sham 69 	Borstal Breakout 	
3-8 - The Fall 	Rowche Rumble 	
3-9 - Ruts* 	Babylons Burning 	
3-10 - Iggy And The Stooges* 	I Got Nothing / I Got Shit 	
3-11 - Au Pairs 	America 	
3-12 - Chron Gen 	Fiasco 	
3-13 - The Boys (2) 	Cop Cars 	
3-14 - The Stranglers 	Peasant In The Big Shitty 	
3-15 - Cortinas* 	Fascist Dictator 	
3-16 - Redskins 	Red's Strike The Blues 	
3-17 - Theatre Of Hate 	Do You Believe In The Westworld 	
3-18 - Vice Squad 	Stand Strong Stand Proud 	
3-19 - New Model Army 	Vengeance 	
3-20 - Ruts* 	In A Rut

EAC-Log, CUE-Sheed & NFO:

Click to open spoiler
Exact Audio Copy V0.99 prebeta 5 from 4. May 2009

EAC extraction logfile from 23. July 2009, 7:23

Various / Agitprop: The Politics of Punk

Used drive : MATSHITADVD-R UJ-867 Adapter: 0 ID: 0

Read mode : Secure
Utilize accurate stream : Yes
Defeat audio cache : Yes
Make use of C2 pointers : No

Read offset correction : 102
Overread into Lead-In and Lead-Out : Yes
Fill up missing offset samples with silence : Yes
Delete leading and trailing silent blocks : No
Null samples used in CRC calculations : No
Used interface : Native Win32 interface for Win NT & 2000
Gap handling : Appended to previous track

Used output format : User Defined Encoder
Selected bitrate : 768 kBit/s
Quality : High
Add ID3 tag : No
Command line compressor : C:\Program Files (x86)\Exact Audio Copy\FLAC\FLAC.EXE
Additional command line options : -8 -V -T “ARTIST=%a” -T “TITLE=%t” -T “ALBUM=%g” -T “DATE=%y” -T “TRACKNUMBER=%n” -T “GENRE=%m” -T “COMMENT=%e” %s -o %d

TOC of the extracted CD

Track | Start | Length | Start sector | End sector
———————————————————
1 | 0:00.00 | 4:20.25 | 0 | 19524
2 | 4:20.25 | 2:04.25 | 19525 | 28849
3 | 6:24.50 | 4:55.62 | 28850 | 51036
4 | 11:20.37 | 4:14.00 | 51037 | 70086
5 | 15:34.37 | 2:54.38 | 70087 | 83174
6 | 18:29.00 | 2:22.00 | 83175 | 93824
7 | 20:51.00 | 4:08.35 | 93825 | 112459
8 | 24:59.35 | 3:43.60 | 112460 | 129244
9 | 28:43.20 | 5:14.00 | 129245 | 152794
10 | 33:57.20 | 2:48.67 | 152795 | 165461
11 | 36:46.12 | 2:58.60 | 165462 | 178871
12 | 39:44.72 | 4:45.55 | 178872 | 200301
13 | 44:30.52 | 1:56.43 | 200302 | 209044
14 | 46:27.20 | 2:36.50 | 209045 | 220794
15 | 49:03.70 | 2:55.05 | 220795 | 233924
16 | 51:59.00 | 3:04.62 | 233925 | 247786
17 | 55:03.62 | 1:37.28 | 247787 | 255089
18 | 56:41.15 | 2:56.47 | 255090 | 268336
19 | 59:37.62 | 2:37.28 | 268337 | 280139
20 | 62:15.15 | 2:29.67 | 280140 | 291381

Track 1

Filename 1 – 01 – Ex Pistols – Land of Hope and Glory.wav

Pre-gap length 0:00:02.00

Peak level 98.8 %
Track quality 99.9 %
Test CRC 6805B536
Copy CRC 6805B536
Accurately ripped (confidence 2) [D3B9DBD1]
Copy OK

Track 2

Filename 1 – 02 – The Mekons – Fight The Cuts.wav

Pre-gap length 0:00:01.00

Peak level 90.8 %
Track quality 100.0 %
Test CRC A17B41FB
Copy CRC A17B41FB
Accurately ripped (confidence 2) [6D0AFE0A]
Copy OK

Track 3

Filename 1 – 03 – Redskins – Unionize.wav

Pre-gap length 0:00:01.00

Peak level 94.9 %
Track quality 100.0 %
Test CRC B9DCE932
Copy CRC B9DCE932
Accurately ripped (confidence 2) [9D100117]
Copy OK

Track 4

Filename 1 – 04 – Billy Bragg – It Says Here.wav

Pre-gap length 0:00:01.00

Peak level 86.7 %
Track quality 99.9 %
Test CRC CD6C2606
Copy CRC CD6C2606
Accurately ripped (confidence 2) [F9F847F6]
Copy OK

Track 5

Filename 1 – 05 – Penetration – Don’t Dictate.wav

Pre-gap length 0:00:01.00

Peak level 90.7 %
Track quality 100.0 %
Test CRC 43D507B1
Copy CRC 43D507B1
Accurately ripped (confidence 2) [759FB65A]
Copy OK

Track 6

Filename 1 – 06 – Poison Girls – Old Tart.wav

Pre-gap length 0:00:01.00

Peak level 88.8 %
Track quality 100.0 %
Test CRC 2819FA17
Copy CRC 2819FA17
Accurately ripped (confidence 2) [E41A2D72]
Copy OK

Track 7

Filename 1 – 07 – The 3 Johns – Death of the European.wav

Pre-gap length 0:00:01.00

Peak level 89.8 %
Track quality 100.0 %
Test CRC 65126E7B
Copy CRC 65126E7B
Accurately ripped (confidence 2) [06DCEEB5]
Copy OK

Track 8

Filename 1 – 08 – New Model Army – Spirit Of The Falklands.wav

Pre-gap length 0:00:01.00

Peak level 90.5 %
Track quality 99.9 %
Test CRC FDEE09E4
Copy CRC FDEE09E4
Accurately ripped (confidence 2) [5FFDB918]
Copy OK

Track 9

Filename 1 – 09 – Joolz – Paved With Gold.wav

Pre-gap length 0:00:01.00

Peak level 86.3 %
Track quality 100.0 %
Test CRC F4BFD8D6
Copy CRC F4BFD8D6
Accurately ripped (confidence 2) [E1BED19E]
Copy OK

Track 10

Filename 1 – 10 – Morgans – Atishoo.wav

Pre-gap length 0:00:01.00

Peak level 94.1 %
Track quality 100.0 %
Test CRC B1B8D5EB
Copy CRC B1B8D5EB
Accurately ripped (confidence 2) [4DFC3F15]
Copy OK

Track 11

Filename 1 – 11 – Dead Kennedys – Chemical Warfare.wav

Pre-gap length 0:00:01.00

Peak level 91.0 %
Track quality 100.0 %
Test CRC 8FB306EF
Copy CRC 8FB306EF
Accurately ripped (confidence 2) [47FF0568]
Copy OK

Track 12

Filename 1 – 12 – Angelic Upstarts – The Murder of Liddle Towers.wav

Pre-gap length 0:00:01.00

Peak level 100.0 %
Track quality 100.0 %
Test CRC 9327CE6C
Copy CRC 9327CE6C
Accurately ripped (confidence 2) [028ED938]
Copy OK

Track 13

Filename 1 – 13 – Patrik Fitzgerald – Irrelevant Battles.wav

Pre-gap length 0:00:01.00

Peak level 91.8 %
Track quality 99.9 %
Test CRC CDECBBDF
Copy CRC CDECBBDF
Accurately ripped (confidence 2) [E3234726]
Copy OK

Track 14

Filename 1 – 14 – Newtown Neurotics – No Respect.wav

Pre-gap length 0:00:01.03

Peak level 90.6 %
Track quality 100.0 %
Test CRC 15B67839
Copy CRC 15B67839
Accurately ripped (confidence 2) [B6217CC7]
Copy OK

Track 15

Filename 1 – 15 – Stiff Little Fingers – Suspect Device (Live).wav

Pre-gap length 0:00:01.00

Peak level 90.2 %
Track quality 100.0 %
Test CRC 4A7D9E9D
Copy CRC 4A7D9E9D
Accurately ripped (confidence 2) [94CAF4F5]
Copy OK

Track 16

Filename 1 – 16 – Chelsea – Right To Work.wav

Pre-gap length 0:00:01.03

Peak level 91.2 %
Track quality 100.0 %
Test CRC 10B0A79B
Copy CRC 10B0A79B
Accurately ripped (confidence 2) [42FF43E9]
Copy OK

Track 17

Filename 1 – 17 – Chaos UK – Selfish Few.wav

Pre-gap length 0:00:01.00

Peak level 95.7 %
Track quality 100.0 %
Test CRC FB47B515
Copy CRC FB47B515
Accurately ripped (confidence 2) [311B6CCD]
Copy OK

Track 18

Filename 1 – 18 – Chaotic Dischord – Fuck Religion, Fuck Politics, Fuck The Lot Of You.wav

Pre-gap length 0:00:01.00

Peak level 98.8 %
Track quality 99.9 %
Test CRC 329924B2
Copy CRC 329924B2
Accurately ripped (confidence 2) [591578EC]
Copy OK

Track 19

Filename 1 – 19 – The Exploited – Hitler’s In The Charts Again.wav

Pre-gap length 0:00:01.00

Peak level 98.8 %
Track quality 99.9 %
Test CRC 3B46C3BD
Copy CRC 3B46C3BD
Accurately ripped (confidence 2) [7D19E26A]
Copy OK

Track 20

Filename 1 – 20 – 999 – Bye Bye England.wav

Pre-gap length 0:00:01.00

Peak level 83.4 %
Track quality 100.0 %
Test CRC 55512842
Copy CRC 55512842
Accurately ripped (confidence 2) [A7A36C21]
Copy OK

All tracks accurately ripped

No errors occurred

End of status report

Exact Audio Copy V0.99 prebeta 5 from 4. May 2009

EAC extraction logfile from 24. July 2009, 0:42

Various / Agitprop: The Politics of Punk

Used drive : MATSHITADVD-R UJ-867 Adapter: 0 ID: 0

Read mode : Secure
Utilize accurate stream : Yes
Defeat audio cache : Yes
Make use of C2 pointers : No

Read offset correction : 102
Overread into Lead-In and Lead-Out : Yes
Fill up missing offset samples with silence : Yes
Delete leading and trailing silent blocks : No
Null samples used in CRC calculations : No
Used interface : Native Win32 interface for Win NT & 2000
Gap handling : Appended to previous track

Used output format : User Defined Encoder
Selected bitrate : 768 kBit/s
Quality : High
Add ID3 tag : No
Command line compressor : C:\Program Files (x86)\Exact Audio Copy\FLAC\FLAC.EXE
Additional command line options : -8 -V -T “ARTIST=%a” -T “TITLE=%t” -T “ALBUM=%g” -T “DATE=%y” -T “TRACKNUMBER=%n” -T “GENRE=%m” -T “COMMENT=%e” %s -o %d

TOC of the extracted CD

Track | Start | Length | Start sector | End sector
———————————————————
1 | 0:00.00 | 4:29.52 | 0 | 20226
2 | 4:29.52 | 3:49.58 | 20227 | 37459
3 | 8:19.35 | 3:34.12 | 37460 | 53521
4 | 11:53.47 | 2:20.25 | 53522 | 64046
5 | 14:13.72 | 2:18.53 | 64047 | 74449
6 | 16:32.50 | 2:52.32 | 74450 | 87381
7 | 19:25.07 | 2:19.25 | 87382 | 97831
8 | 21:44.32 | 3:45.28 | 97832 | 114734
9 | 25:29.60 | 2:58.07 | 114735 | 128091
10 | 28:27.67 | 3:22.13 | 128092 | 143254
11 | 31:50.05 | 2:29.27 | 143255 | 154456
12 | 34:19.32 | 2:55.28 | 154457 | 167609
13 | 37:14.60 | 3:17.55 | 167610 | 182439
14 | 40:32.40 | 3:14.57 | 182440 | 197046
15 | 43:47.22 | 4:58.45 | 197047 | 219441
16 | 48:45.67 | 7:15.45 | 219442 | 252111
17 | 56:01.37 | 3:21.48 | 252112 | 267234
18 | 59:23.10 | 5:09.32 | 267235 | 290441
19 | 64:32.42 | 2:10.55 | 290442 | 300246
20 | 66:43.22 | 3:05.53 | 300247 | 314174

Track 1

Filename 2 – 01 – The Sex Pistols – Submission.wav

Pre-gap length 0:00:02.00

Peak level 100.0 %
Track quality 100.0 %
Test CRC 060AE5DD
Copy CRC 060AE5DD
Accurately ripped (confidence 2) [2E47D2CC]
Copy OK

Track 2

Filename 2 – 02 – Spizz – Soldier Soldier.wav

Pre-gap length 0:00:01.00

Peak level 92.8 %
Track quality 99.9 %
Test CRC 5DD737FD
Copy CRC 5DD737FD
Track not present in AccurateRip database
Copy OK

Track 3

Filename 2 – 03 – Notsensibles – (Im In Love With) Margaret Thatcher.wav

Pre-gap length 0:00:01.00

Peak level 99.5 %
Track quality 99.9 %
Test CRC 67D7A5EF
Copy CRC 67D7A5EF
Accurately ripped (confidence 2) [2B4990DC]
Copy OK

Track 4

Filename 2 – 04 – Menace – GLC.wav

Pre-gap length 0:00:01.00

Peak level 97.6 %
Track quality 100.0 %
Test CRC DD395B6E
Copy CRC DD395B6E
Accurately ripped (confidence 2) [52D5761E]
Copy OK

Track 5

Filename 2 – 05 – Red London – CND.wav

Pre-gap length 0:00:01.00

Peak level 98.8 %
Track quality 100.0 %
Test CRC BA86D907
Copy CRC BA86D907
Accurately ripped (confidence 2) [5F0FDDE0]
Copy OK

Track 6

Filename 2 – 06 – MC5 – Kick Out The Jams.wav

Pre-gap length 0:00:01.00

Peak level 99.1 %
Track quality 100.0 %
Test CRC 156095CA
Copy CRC 156095CA
Accurately ripped (confidence 2) [E08992DE]
Copy OK

Track 7

Filename 2 – 07 – Violators – Government Stinks.wav

Pre-gap length 0:00:01.00

Peak level 90.9 %
Track quality 100.0 %
Test CRC ED47756F
Copy CRC ED47756F
Accurately ripped (confidence 2) [25F633CC]
Copy OK

Track 8

Filename 2 – 08 – Sham 69 – If The Kids Are united.wav

Pre-gap length 0:00:01.02

Peak level 90.7 %
Track quality 100.0 %
Test CRC 69A3F981
Copy CRC 69A3F981
Accurately ripped (confidence 2) [D2D0FDE0]
Copy OK

Track 9

Filename 2 – 09 – Damned – Gun Fury.wav

Pre-gap length 0:00:01.00

Peak level 88.9 %
Track quality 100.0 %
Test CRC 782EAE42
Copy CRC 782EAE42
Accurately ripped (confidence 2) [77F62C5A]
Copy OK

Track 10

Filename 2 – 10 – Tom Robinson – Glad To Be Gay ’94.wav

Pre-gap length 0:00:01.00

Peak level 85.4 %
Track quality 100.0 %
Test CRC 5FA35DAF
Copy CRC 5FA35DAF
Accurately ripped (confidence 2) [5CCDD3AE]
Copy OK

Track 11

Filename 2 – 11 – Billy Bragg – Between The Wars.wav

Pre-gap length 0:00:01.00

Peak level 85.1 %
Track quality 100.0 %
Test CRC 990C4C15
Copy CRC 990C4C15
Accurately ripped (confidence 2) [44C416F5]
Copy OK

Track 12

Filename 2 – 12 – Uk Subs – Facist Regime.wav

Pre-gap length 0:00:01.00

Peak level 96.1 %
Track quality 100.0 %
Test CRC ECE1E053
Copy CRC ECE1E053
Accurately ripped (confidence 2) [5016BD45]
Copy OK

Track 13

Filename 2 – 13 – Anti Nowhere League – Streets of London.wav

Pre-gap length 0:00:01.00

Peak level 92.5 %
Track quality 100.0 %
Test CRC DB80F189
Copy CRC DB80F189
Accurately ripped (confidence 2) [276D4B56]
Copy OK

Track 14

Filename 2 – 14 – Stiff Little Fingers – Alternative Ulster (Live).wav

Pre-gap length 0:00:01.00

Peak level 90.8 %
Track quality 100.0 %
Test CRC D4A8C0EC
Copy CRC D4A8C0EC
Accurately ripped (confidence 2) [A28BCD88]
Copy OK

Track 15

Filename 2 – 15 – Angelic Upstarts – Solidarity.wav

Pre-gap length 0:00:01.01

Peak level 91.1 %
Track quality 100.0 %
Test CRC C48DA7B4
Copy CRC C48DA7B4
Accurately ripped (confidence 2) [4FDC1D13]
Copy OK

Track 16

Filename 2 – 16 – Poison Girls – Persons Unknown.wav

Pre-gap length 0:00:01.00

Peak level 92.3 %
Track quality 100.0 %
Test CRC A381149C
Copy CRC A381149C
Accurately ripped (confidence 2) [3166D48D]
Copy OK

Track 17

Filename 2 – 17 – The 3 Johns – Fruit Flies.wav

Pre-gap length 0:00:01.00

Peak level 90.8 %
Track quality 100.0 %
Test CRC 95013491
Copy CRC 95013491
Accurately ripped (confidence 2) [DFCC837F]
Copy OK

Track 18

Filename 2 – 18 – Newtown Neurotics – Living With Unemployment.wav

Pre-gap length 0:00:01.00

Peak level 91.1 %
Track quality 100.0 %
Test CRC 4A0F78CD
Copy CRC 4A0F78CD
Accurately ripped (confidence 2) [781DF348]
Copy OK

Track 19

Filename 2 – 19 – Anti Pasti – No Government.wav

Pre-gap length 0:00:01.00

Peak level 92.9 %
Track quality 100.0 %
Test CRC C6B332EC
Copy CRC C6B332EC
Accurately ripped (confidence 2) [257A1B12]
Copy OK

Track 20

Filename 2 – 20 – Captain Sensible – Smash it up.wav

Pre-gap length 0:00:01.00

Peak level 91.5 %
Track quality 100.0 %
Test CRC 9F7BB68C
Copy CRC 9F7BB68C
Accurately ripped (confidence 2) [796EAB71]
Copy OK

19 track(s) accurately ripped
1 track(s) not present in the AccurateRip database

Some tracks could not be verified as accurate

No errors occurred

End of status report

Exact Audio Copy V0.99 prebeta 5 from 4. May 2009

EAC extraction logfile from 24. July 2009, 3:01

various / Agitprop: The Politics of Punk

Used drive : MATSHITADVD-R UJ-867 Adapter: 0 ID: 0

Read mode : Secure
Utilize accurate stream : Yes
Defeat audio cache : Yes
Make use of C2 pointers : No

Read offset correction : 102
Overread into Lead-In and Lead-Out : Yes
Fill up missing offset samples with silence : Yes
Delete leading and trailing silent blocks : No
Null samples used in CRC calculations : No
Used interface : Native Win32 interface for Win NT & 2000
Gap handling : Appended to previous track

Used output format : User Defined Encoder
Selected bitrate : 768 kBit/s
Quality : High
Add ID3 tag : No
Command line compressor : C:\Program Files (x86)\Exact Audio Copy\FLAC\FLAC.EXE
Additional command line options : -8 -V -T “ARTIST=%a” -T “TITLE=%t” -T “ALBUM=%g” -T “DATE=%y” -T “TRACKNUMBER=%n” -T “GENRE=%m” -T “COMMENT=%e” %s -o %d

TOC of the extracted CD

Track | Start | Length | Start sector | End sector
———————————————————
1 | 0:00.00 | 4:01.30 | 0 | 18104
2 | 4:01.30 | 1:21.07 | 18105 | 24186
3 | 5:22.37 | 2:16.30 | 24187 | 34416
4 | 7:38.67 | 3:14.30 | 34417 | 48996
5 | 10:53.22 | 2:45.10 | 48997 | 61381
6 | 13:38.32 | 2:24.03 | 61382 | 72184
7 | 16:02.35 | 2:10.72 | 72185 | 82006
8 | 18:13.32 | 4:03.03 | 82007 | 100234
9 | 22:16.35 | 2:34.70 | 100235 | 111854
10 | 24:51.30 | 4:19.47 | 111855 | 131326
11 | 29:11.02 | 5:26.23 | 131327 | 155799
12 | 34:37.25 | 3:38.17 | 155800 | 172166
13 | 38:15.42 | 2:04.60 | 172167 | 181526
14 | 40:20.27 | 3:13.60 | 181527 | 196061
15 | 43:34.12 | 2:37.30 | 196062 | 207866
16 | 46:11.42 | 4:36.28 | 207867 | 228594
17 | 50:47.70 | 5:18.72 | 228595 | 252516
18 | 56:06.67 | 3:01.28 | 252517 | 266119
19 | 59:08.20 | 4:08.35 | 266120 | 284754
20 | 63:16.55 | 3:11.20 | 284755 | 299099

Track 1

Filename 3 – 01 – Sex Pistols – Anarchy In The UK.wav

Pre-gap length 0:00:02.00

Peak level 93.0 %
Track quality 99.9 %
Test CRC 2A38A10B
Copy CRC 2A38A10B
Accurately ripped (confidence 2) [8DF26BA1]
Copy OK

Track 2

Filename 3 – 02 – The Exploited – Class War.wav

Pre-gap length 0:00:01.00

Peak level 94.3 %
Track quality 100.0 %
Test CRC E643E2F8
Copy CRC E643E2F8
Accurately ripped (confidence 2) [29E9EB86]
Copy OK

Track 3

Filename 3 – 03 – The Varukers – Protest and Survive.wav

Pre-gap length 0:00:01.00

Peak level 89.3 %
Track quality 100.0 %
Test CRC 201AB382
Copy CRC 201AB382
Accurately ripped (confidence 2) [9C1A714F]
Copy OK

Track 4

Filename 3 – 04 – Threats – Politicians and Ministers.wav

Pre-gap length 0:00:01.00

Peak level 94.2 %
Track quality 100.0 %
Test CRC DF766600
Copy CRC DF766600
Accurately ripped (confidence 2) [FDEA1FFB]
Copy OK

Track 5

Filename 3 – 05 – Riot Squad – Fuck The Tories.wav

Pre-gap length 0:00:01.00

Peak level 92.2 %
Track quality 100.0 %
Test CRC BF5E1725
Copy CRC BF5E1725
Accurately ripped (confidence 2) [952BA575]
Copy OK

Track 6

Filename 3 – 06 – The Adicts – How Sad.wav

Pre-gap length 0:00:01.00

Peak level 92.8 %
Track quality 100.0 %
Test CRC 22350FF4
Copy CRC 22350FF4
Accurately ripped (confidence 2) [36C5E525]
Copy OK

Track 7

Filename 3 – 07 – Sham 69 – Borstal Breakout.wav

Pre-gap length 0:00:01.00

Peak level 92.4 %
Track quality 100.0 %
Test CRC 9B12DC80
Copy CRC 9B12DC80
Accurately ripped (confidence 2) [C4EA4C7F]
Copy OK

Track 8

Filename 3 – 08 – The Fall – Rowche Rumble.wav

Pre-gap length 0:00:01.00

Peak level 91.1 %
Track quality 100.0 %
Test CRC F29F912A
Copy CRC F29F912A
Accurately ripped (confidence 2) [1F0FF63D]
Copy OK

Track 9

Filename 3 – 09 – Ruts – Babylons Burning.wav

Pre-gap length 0:00:01.00

Peak level 90.1 %
Track quality 100.0 %
Test CRC 9453058E
Copy CRC 9453058E
Accurately ripped (confidence 2) [8055960F]
Copy OK

Track 10

Filename 3 – 10 – Iggy And The Stooges – I Got Nothing,I Got Shit.wav

Pre-gap length 0:00:01.00

Peak level 92.1 %
Track quality 100.0 %
Test CRC 3244E0B0
Copy CRC 3244E0B0
Accurately ripped (confidence 2) [1AAA075B]
Copy OK

Track 11

Filename 3 – 11 – Au Pairs – America.wav

Pre-gap length 0:00:01.00

Peak level 92.0 %
Track quality 100.0 %
Test CRC 59D723E6
Copy CRC 59D723E6
Track not present in AccurateRip database
Copy OK

Track 12

Filename 3 – 12 – Chron Gen – Fiasco.wav

Pre-gap length 0:00:01.00

Peak level 92.5 %
Track quality 100.0 %
Test CRC 42E20830
Copy CRC 42E20830
Track not present in AccurateRip database
Copy OK

Track 13

Filename 3 – 13 – The Boys – Cop Cars.wav

Pre-gap length 0:00:01.00

Peak level 94.2 %
Track quality 100.0 %
Test CRC 4F013519
Copy CRC 4F013519
Accurately ripped (confidence 2) [97F9E098]
Copy OK

Track 14

Filename 3 – 14 – The Stranglers – Peasant In The Big Shitty.wav

Pre-gap length 0:00:01.00

Peak level 88.6 %
Track quality 100.0 %
Test CRC DA60BA89
Copy CRC DA60BA89
Accurately ripped (confidence 2) [442A198F]
Copy OK

Track 15

Filename 3 – 15 – Cortinas – Fascist Dictator.wav

Pre-gap length 0:00:01.00

Peak level 91.7 %
Track quality 99.9 %
Test CRC 7B262254
Copy CRC 7B262254
Accurately ripped (confidence 2) [3FDBF035]
Copy OK

Track 16

Filename 3 – 16 – Redskins – Red’s Strike The Blues.wav

Pre-gap length 0:00:01.00

Peak level 92.2 %
Track quality 100.0 %
Test CRC F4C4D56B
Copy CRC F4C4D56B
Track not present in AccurateRip database
Copy OK

Track 17

Filename 3 – 17 – Theatre of Hate – Do You Believe In The Westworld.wav

Pre-gap length 0:00:01.00

Peak level 92.7 %
Track quality 100.0 %
Test CRC F72D411B
Copy CRC F72D411B
Accurately ripped (confidence 2) [AEB98B14]
Copy OK

Track 18

Filename 3 – 18 – Vice Squad – Stand Strong Stand Proud (Live).wav

Pre-gap length 0:00:01.00

Peak level 91.7 %
Track quality 100.0 %
Test CRC 63D2EABA
Copy CRC 63D2EABA
Accurately ripped (confidence 2) [C6EFA425]
Copy OK

Track 19

Filename 3 – 19 – New Model Army – Vengeance.wav

Pre-gap length 0:00:01.00

Peak level 95.1 %
Track quality 100.0 %
Test CRC D7569546
Copy CRC D7569546
Accurately ripped (confidence 2) [7EC7333F]
Copy OK

Track 20

Filename 3 – 20 – Ruts – In A Rut.wav

Pre-gap length 0:00:01.00

Peak level 91.1 %
Track quality 99.9 %
Test CRC B42A3CC6
Copy CRC B42A3CC6
Accurately ripped (confidence 2) [491DC310]
Copy OK

17 track(s) accurately ripped
3 track(s) not present in the AccurateRip database

Some tracks could not be verified as accurate

No errors occurred

End of status report

REM GENRE Punk
REM DATE 1996
REM DISCID 190F2D14
REM COMMENT “ExactAudioCopy v0.99pb5”
PERFORMER “Various”
TITLE “Agitprop: The Politics of Punk”
FILE “1 – 01 – Ex Pistols – Land of Hope and Glory.wav” WAVE
TRACK 01 AUDIO
TITLE “Land of Hope and Glory”
PERFORMER “Ex Pistols”
INDEX 01 00:00:00
TRACK 02 AUDIO
TITLE “Fight The Cuts”
PERFORMER “The Mekons”
INDEX 00 04:19:25
FILE “1 – 02 – The Mekons – Fight The Cuts.wav” WAVE
INDEX 01 00:00:00
TRACK 03 AUDIO
TITLE “Unionize”
PERFORMER “Redskins”
INDEX 00 02:03:25
FILE “1 – 03 – Redskins – Unionize.wav” WAVE
INDEX 01 00:00:00
TRACK 04 AUDIO
TITLE “It Says Here”
PERFORMER “Billy Bragg”
INDEX 00 04:54:62
FILE “1 – 04 – Billy Bragg – It Says Here.wav” WAVE
INDEX 01 00:00:00
TRACK 05 AUDIO
TITLE “Don’t Dictate”
PERFORMER “Penetration”
INDEX 00 04:13:00
FILE “1 – 05 – Penetration – Don’t Dictate.wav” WAVE
INDEX 01 00:00:00
TRACK 06 AUDIO
TITLE “Old Tart”
PERFORMER “Poison Girls”
INDEX 00 02:53:38
FILE “1 – 06 – Poison Girls – Old Tart.wav” WAVE
INDEX 01 00:00:00
TRACK 07 AUDIO
TITLE “Death of the European”
PERFORMER “The 3 Johns”
INDEX 00 02:21:00
FILE “1 – 07 – The 3 Johns – Death of the European.wav” WAVE
INDEX 01 00:00:00
TRACK 08 AUDIO
TITLE “Spirit Of The Falklands”
PERFORMER “New Model Army”
INDEX 00 04:07:35
FILE “1 – 08 – New Model Army – Spirit Of The Falklands.wav” WAVE
INDEX 01 00:00:00
TRACK 09 AUDIO
TITLE “Paved With Gold”
PERFORMER “Joolz”
INDEX 00 03:42:60
FILE “1 – 09 – Joolz – Paved With Gold.wav” WAVE
INDEX 01 00:00:00
TRACK 10 AUDIO
TITLE “Atishoo”
PERFORMER “Morgans”
INDEX 00 05:13:00
FILE “1 – 10 – Morgans – Atishoo.wav” WAVE
INDEX 01 00:00:00
TRACK 11 AUDIO
TITLE “Chemical Warfare”
PERFORMER “Dead Kennedys”
INDEX 00 02:47:67
FILE “1 – 11 – Dead Kennedys – Chemical Warfare.wav” WAVE
INDEX 01 00:00:00
TRACK 12 AUDIO
TITLE “The Murder of Liddle Towers”
PERFORMER “Angelic Upstarts”
INDEX 00 02:57:60
FILE “1 – 12 – Angelic Upstarts – The Murder of Liddle Towers.wav” WAVE
INDEX 01 00:00:00
TRACK 13 AUDIO
TITLE “Irrelevant Battles”
PERFORMER “Patrik Fitzgerald”
INDEX 00 04:44:55
FILE “1 – 13 – Patrik Fitzgerald – Irrelevant Battles.wav” WAVE
INDEX 01 00:00:00
TRACK 14 AUDIO
TITLE “No Respect”
PERFORMER “Newtown Neurotics”
INDEX 00 01:55:40
FILE “1 – 14 – Newtown Neurotics – No Respect.wav” WAVE
INDEX 01 00:00:00
TRACK 15 AUDIO
TITLE “Suspect Device (Live)”
PERFORMER “Stiff Little Fingers”
INDEX 00 02:35:50
FILE “1 – 15 – Stiff Little Fingers – Suspect Device (Live).wav” WAVE
INDEX 01 00:00:00
TRACK 16 AUDIO
TITLE “Right To Work”
PERFORMER “Chelsea”
INDEX 00 02:54:02
FILE “1 – 16 – Chelsea – Right To Work.wav” WAVE
INDEX 01 00:00:00
TRACK 17 AUDIO
TITLE “Selfish Few”
PERFORMER “Chaos UK”
INDEX 00 03:03:62
FILE “1 – 17 – Chaos UK – Selfish Few.wav” WAVE
INDEX 01 00:00:00
TRACK 18 AUDIO
TITLE “Fuck Religion, Fuck Politics, Fuck The Lot Of You”
PERFORMER “Chaotic Dischord”
INDEX 00 01:36:28
FILE “1 – 18 – Chaotic Dischord – Fuck Religion, Fuck Politics, Fuck The Lot Of You.wav” WAVE
INDEX 01 00:00:00
TRACK 19 AUDIO
TITLE “Hitler’s In The Charts Again”
PERFORMER “The Exploited”
INDEX 00 02:55:47
FILE “1 – 19 – The Exploited – Hitler’s In The Charts Again.wav” WAVE
INDEX 01 00:00:00
TRACK 20 AUDIO
TITLE “Bye Bye England”
PERFORMER “999”
INDEX 00 02:36:28
FILE “1 – 20 – 999 – Bye Bye England.wav” WAVE
INDEX 01 00:00:00

REM GENRE Punk
REM DATE 1996
REM DISCID 14105D14
REM COMMENT “ExactAudioCopy v0.99pb5”
CATALOG 0000000000000
PERFORMER “Various”
TITLE “Agitprop: The Politics of Punk”
FILE “2 – 02 – The Sex Pistols – Submission.wav” WAVE
TRACK 01 AUDIO
TITLE “Submission”
PERFORMER “The Sex Pistols”
INDEX 01 00:00:00
TRACK 02 AUDIO
TITLE “Soldier Soldier”
PERFORMER “Spizz”
INDEX 00 04:28:52
FILE “2 – 02 – Spizz – Soldier Soldier.wav” WAVE
INDEX 01 00:00:00
TRACK 03 AUDIO
TITLE “(Im In Love With) Margaret Thatcher”
PERFORMER “Notsensibles”
INDEX 00 03:48:58
FILE “2 – 03 – Notsensibles – (Im In Love With) Margaret Thatcher.wav” WAVE
INDEX 01 00:00:00
TRACK 04 AUDIO
TITLE “GLC”
PERFORMER “Menace”
INDEX 00 03:33:12
FILE “2 – 04 – Menace – GLC.wav” WAVE
INDEX 01 00:00:00
TRACK 05 AUDIO
TITLE “CND”
PERFORMER “Red London”
INDEX 00 02:19:25
FILE “2 – 05 – Red London – CND.wav” WAVE
INDEX 01 00:00:00
TRACK 06 AUDIO
TITLE “Kick Out The Jams”
PERFORMER “MC5”
INDEX 00 02:17:53
FILE “2 – 06 – MC5 – Kick Out The Jams.wav” WAVE
INDEX 01 00:00:00
TRACK 07 AUDIO
TITLE “Government Stinks”
PERFORMER “Violators”
INDEX 00 02:51:32
FILE “2 – 07 – Violators – Government Stinks.wav” WAVE
INDEX 01 00:00:00
TRACK 08 AUDIO
TITLE “If The Kids Are united”
PERFORMER “Sham 69”
INDEX 00 02:18:23
FILE “2 – 08 – Sham 69 – If The Kids Are united.wav” WAVE
INDEX 01 00:00:00
TRACK 09 AUDIO
TITLE “Gun Fury”
PERFORMER “Damned”
INDEX 00 03:44:28
FILE “2 – 09 – Damned – Gun Fury.wav” WAVE
INDEX 01 00:00:00
TRACK 10 AUDIO
TITLE “Glad To Be Gay ’94”
PERFORMER “Tom Robinson”
INDEX 00 02:57:07
FILE “2 – 10 – Tom Robinson – Glad To Be Gay ’94.wav” WAVE
INDEX 01 00:00:00
TRACK 11 AUDIO
TITLE “Between The Wars”
PERFORMER “Billy Bragg”
INDEX 00 03:21:13
FILE “2 – 12 – Billy Bragg – Between The Wars.wav” WAVE
INDEX 01 00:00:00
TRACK 12 AUDIO
TITLE “Facist Regime”
PERFORMER “Uk Subs”
INDEX 00 02:28:27
FILE “2 – 12 – Uk Subs – Facist Regime.wav” WAVE
INDEX 01 00:00:00
TRACK 13 AUDIO
TITLE “Streets of London”
PERFORMER “Anti Nowhere League”
INDEX 00 02:54:28
FILE “2 – 13 – Anti Nowhere League – Streets of London.wav” WAVE
INDEX 01 00:00:00
TRACK 14 AUDIO
TITLE “Alternative Ulster (Live)”
PERFORMER “Stiff Little Fingers”
INDEX 00 03:16:55
FILE “2 – 14 – Stiff Little Fingers – Alternative Ulster (Live).wav” WAVE
INDEX 01 00:00:00
TRACK 15 AUDIO
TITLE “Solidarity”
PERFORMER “Angelic Upstarts”
INDEX 00 03:13:56
FILE “2 – 15 – Angelic Upstarts – Solidarity.wav” WAVE
INDEX 01 00:00:00
TRACK 16 AUDIO
TITLE “Persons Unknown”
PERFORMER “Poison Girls”
INDEX 00 04:57:45
FILE “2 – 16 – Poison Girls – Persons Unknown.wav” WAVE
INDEX 01 00:00:00
TRACK 17 AUDIO
TITLE “Fruit Flies”
PERFORMER “The 3 Johns”
INDEX 00 07:14:45
FILE “2 – 17 – The 3 Johns – Fruit Flies.wav” WAVE
INDEX 01 00:00:00
TRACK 18 AUDIO
TITLE “Living With Unemployment”
PERFORMER “Newtown Neurotics”
INDEX 00 03:20:48
FILE “2 – 18 – Newtown Neurotics – Living With Unemployment.wav” WAVE
INDEX 01 00:00:00
TRACK 19 AUDIO
TITLE “No Government”
PERFORMER “Anti Pasti”
INDEX 00 05:08:32
FILE “2 – 19 – Anti Pasti – No Government.wav” WAVE
INDEX 01 00:00:00
TRACK 20 AUDIO
TITLE “Smash it up”
PERFORMER “Captain Sensible”
INDEX 00 02:09:55
FILE “2 – 20 – Captain Sensible – Smash it up.wav” WAVE
INDEX 01 00:00:00

REM GENRE Punk
REM DATE 1996
REM DISCID 290F9414
REM COMMENT “ExactAudioCopy v0.99pb5”
PERFORMER “various”
TITLE “Agitprop: The Politics of Punk”
FILE “3 – 01 – Sex Pistols – Anarchy In The UK.wav” WAVE
TRACK 01 AUDIO
TITLE “Anarchy In The UK”
PERFORMER “Sex Pistols”
INDEX 01 00:00:00
TRACK 02 AUDIO
TITLE “Class War”
PERFORMER “The Exploited”
INDEX 00 04:00:30
FILE “3 – 02 – The Exploited – Class War.wav” WAVE
INDEX 01 00:00:00
TRACK 03 AUDIO
TITLE “Protest and Survive”
PERFORMER “The Varukers”
INDEX 00 01:20:07
FILE “3 – 03 – The Varukers – Protest and Survive.wav” WAVE
INDEX 01 00:00:00
TRACK 04 AUDIO
TITLE “Politicians and Ministers”
PERFORMER “Threats”
INDEX 00 02:15:30
FILE “3 – 04 – Threats – Politicians and Ministers.wav” WAVE
INDEX 01 00:00:00
TRACK 05 AUDIO
TITLE “Fuck The Tories”
PERFORMER “Riot Squad”
INDEX 00 03:13:30
FILE “3 – 05 – Riot Squad – Fuck The Tories.wav” WAVE
INDEX 01 00:00:00
TRACK 06 AUDIO
TITLE “How Sad”
PERFORMER “The Adicts”
INDEX 00 02:44:10
FILE “3 – 06 – The Adicts – How Sad.wav” WAVE
INDEX 01 00:00:00
TRACK 07 AUDIO
TITLE “Borstal Breakout”
PERFORMER “Sham 69”
INDEX 00 02:23:03
FILE “3 – 07 – Sham 69 – Borstal Breakout.wav” WAVE
INDEX 01 00:00:00
TRACK 08 AUDIO
TITLE “Rowche Rumble”
PERFORMER “The Fall”
INDEX 00 02:09:72
FILE “3 – 08 – The Fall – Rowche Rumble.wav” WAVE
INDEX 01 00:00:00
TRACK 09 AUDIO
TITLE “Babylons Burning”
PERFORMER “Ruts”
INDEX 00 04:02:03
FILE “3 – 09 – Ruts – Babylons Burning.wav” WAVE
INDEX 01 00:00:00
TRACK 10 AUDIO
TITLE “I Got Nothing/I Got Shit”
PERFORMER “Iggy And The Stooges”
INDEX 00 02:33:70
FILE “3 – 10 – Iggy And The Stooges – I Got Nothing,I Got Shit.wav” WAVE
INDEX 01 00:00:00
TRACK 11 AUDIO
TITLE “America”
PERFORMER “Au Pairs”
INDEX 00 04:18:47
FILE “3 – 11 – Au Pairs – America.wav” WAVE
INDEX 01 00:00:00
TRACK 12 AUDIO
TITLE “Fiasco”
PERFORMER “Chron Gen”
INDEX 00 05:25:23
FILE “3 – 12 – Chron Gen – Fiasco.wav” WAVE
INDEX 01 00:00:00
TRACK 13 AUDIO
TITLE “Cop Cars”
PERFORMER “The Boys”
INDEX 00 03:37:17
FILE “3 – 13 – The Boys – Cop Cars.wav” WAVE
INDEX 01 00:00:00
TRACK 14 AUDIO
TITLE “Peasant In The Big Shitty”
PERFORMER “The Stranglers”
INDEX 00 02:03:60
FILE “3 – 14 – The Stranglers – Peasant In The Big Shitty.wav” WAVE
INDEX 01 00:00:00
TRACK 15 AUDIO
TITLE “Fascist Dictator”
PERFORMER “Cortinas”
INDEX 00 03:12:60
FILE “3 – 15 – Cortinas – Fascist Dictator.wav” WAVE
INDEX 01 00:00:00
TRACK 16 AUDIO
TITLE “Red’s Strike The Blues”
PERFORMER “Redskins”
INDEX 00 02:36:30
FILE “3 – 16 – Redskins – Red’s Strike The Blues.wav” WAVE
INDEX 01 00:00:00
TRACK 17 AUDIO
TITLE “Do You Believe In The Westworld”
PERFORMER “Theatre of Hate”
INDEX 00 04:35:28
FILE “3 – 17 – Theatre of Hate – Do You Believe In The Westworld.wav” WAVE
INDEX 01 00:00:00
TRACK 18 AUDIO
TITLE “Stand Strong Stand Proud (Live)”
PERFORMER “Vice Squad”
INDEX 00 05:17:72
FILE “3 – 18 – Vice Squad – Stand Strong Stand Proud (Live).wav” WAVE
INDEX 01 00:00:00
TRACK 19 AUDIO
TITLE “Vengeance”
PERFORMER “New Model Army”
INDEX 00 03:00:28
FILE “3 – 19 – New Model Army – Vengeance.wav” WAVE
INDEX 01 00:00:00
TRACK 20 AUDIO
TITLE “In A Rut”
PERFORMER “Ruts”
INDEX 00 04:07:35
FILE “3 – 20 – Ruts – In A Rut.wav” WAVE
INDEX 01 00:00:00

Leave a Reply

Your email address will not be published. Required fields are marked *

Enter the text from the image below
 

This site uses Akismet to reduce spam. Learn how your comment data is processed.