Van Halen – Women And Children First




Artist: Van Halen
Year: 1980/1987
Genre: Rock
Notes: Discogs
Add. Notes:
Encoder: FLAC
Bitrate: ~900 kBit/s (44.1 kHz/16 Bit/s)
Bin/Cue incl.: Yes
Size: 226,91 MB
Password: “slam” (without ” “)


http://www.share-online.biz/dl/O7HO5RRPP8S
https://rapidgator.net/file/93647498522c887240981574ba937400
https://uploadbyte.com/q9lpdghrhbeg
https://uploadever.com/mgc6e369bdcj

Tracklist:

1 - And The Cradle Will Rock... - 3:31
2 - Everybody Wants Some!! - 5:05
3 - Fools - 5:55
4 - Romeo Delight - 4:19
5 - Tora! Tora! - 0:57
6 - Loss Of Control - 2:36
7 - Take Your Whiskey Home - 3:09
8 - Could This Be Magic? - 3:08
9 - In A Simple Rhyme - 4:33

EAC-Log, CUE-Sheed & NFO:

Click to open spoiler
Exact Audio Copy V1.0 beta 1 from 15. November 2010

EAC extraction logfile from 6. November 2011, 2:24

Van Halen / Women And Children First

Used drive : ASUS DRW-24B1ST Adapter: 5 ID: 0

Read mode : Secure
Utilize accurate stream : Yes
Defeat audio cache : Yes
Make use of C2 pointers : No

Read offset correction : 6
Overread into Lead-In and Lead-Out : No
Fill up missing offset samples with silence : Yes
Delete leading and trailing silent blocks : No
Null samples used in CRC calculations : Yes
Used interface : Installed external ASPI interface

Used output format : User Defined Encoder
Selected bitrate : 128 kBit/s
Quality : High
Add ID3 tag : No
Command line compressor : D:\Rec Install\lossless\lossless\Exact Audio Copy 0.9b4 + APE WV & FLAC Encoders\FLAC.EXE
Additional command line options : -8 -V %s

TOC of the extracted CD

Track | Start | Length | Start sector | End sector
———————————————————
1 | 0:00.00 | 3:33.32 | 0 | 16006
2 | 3:33.32 | 5:08.43 | 16007 | 39149
3 | 8:42.00 | 5:56.57 | 39150 | 65906
4 | 14:38.57 | 4:19.50 | 65907 | 85381
5 | 18:58.32 | 0:56.50 | 85382 | 89631
6 | 19:55.07 | 2:39.03 | 89632 | 101559
7 | 22:34.10 | 3:11.60 | 101560 | 115944
8 | 25:45.70 | 3:09.20 | 115945 | 130139
9 | 28:55.15 | 4:40.45 | 130140 | 151184

Range status and errors

Selected range

Filename G:\Torrent\# MY\Van Halen – Discography (1978-2004)\Albums (Original)\1980 – Women And Children First\Van Halen – Women And Children First.wav

Peak level 100.0 %
Extraction speed 0.3 X
Range quality 100.0 %
Test CRC 2D61B644
Copy CRC 2D61B644
Copy OK

No errors occurred

AccurateRip summary

Track 1 accurately ripped (confidence 22) [3AC773F0]
Track 2 accurately ripped (confidence 22) [2C6F89A9]
Track 3 accurately ripped (confidence 22) [278AF5E0]
Track 4 accurately ripped (confidence 22) [5D1A82E8]
Track 5 accurately ripped (confidence 22) [4E3CB78E]
Track 6 accurately ripped (confidence 22) [DCD3A561]
Track 7 accurately ripped (confidence 21) [8752A896]
Track 8 accurately ripped (confidence 21) [6AF2B209]
Track 9 accurately ripped (confidence 21) [6BC0AD45]

All tracks accurately ripped

End of status report

REM GENRE “Hard Rock”
REM DATE 1980
REM DISCID 6F07DF09
REM COMMENT “ExactAudioCopy v1.0b1”
PERFORMER “Van Halen”
TITLE “Women And Children First”
FILE “Van Halen – Women And Children First.flac” WAVE
TRACK 01 AUDIO
TITLE “And The Cradle Will Rock…”
PERFORMER “Van Halen”
INDEX 01 00:00:00
TRACK 02 AUDIO
TITLE “Everybody Wants Some!!”
PERFORMER “Van Halen”
INDEX 01 03:33:32
TRACK 03 AUDIO
TITLE “Fools”
PERFORMER “Van Halen”
INDEX 00 08:40:70
INDEX 01 08:42:00
TRACK 04 AUDIO
TITLE “Romeo Delight”
PERFORMER “Van Halen”
INDEX 00 14:37:55
INDEX 01 14:38:57
TRACK 05 AUDIO
TITLE “Tora! Tora!”
PERFORMER “Van Halen”
INDEX 00 18:58:00
INDEX 01 18:58:32
TRACK 06 AUDIO
TITLE “Loss Of Control”
PERFORMER “Van Halen”
INDEX 01 19:55:07
TRACK 07 AUDIO
TITLE “Take Your Whiskey Home”
PERFORMER “Van Halen”
INDEX 01 22:34:10
TRACK 08 AUDIO
TITLE “Could This Be Magic?”
PERFORMER “Van Halen”
INDEX 00 25:44:27
INDEX 01 25:45:70
TRACK 09 AUDIO
TITLE “In A Simple Rhyme”
PERFORMER “Van Halen”
INDEX 01 28:55:15

Leave a Reply

Your email address will not be published. Required fields are marked *

This site uses Akismet to reduce spam. Learn how your comment data is processed.