Van Halen – Van Halen




No Cover available


Artist: Van Halen
Year: 1978/1988
Genre: Rock
Notes: Discogs
Add. Notes:
Watch Songs on: YouTube
Cover incl.: Yes
Encoder: FLAC
Bitrate: ~900 kBit/s (44.1 kHz/16 Bit/s)
Log & Cue incl.: Yes/Yes
Size: 245,4 MB
Password: “slam” (without ” “)


All Downloads/Hosters are compatible

Download 1
KatFile.com
Turbobit.net
Rapidgator.net
FileFactory.com
Download 2
KatFile.com
Turbobit.net
Rapidgator.net
FileFactory.com

Tracklist:

1 - Runnin' With The Devil - 3:32
2 - Eruption - 1:42
3 - You Really Got Me - 2:37
4 - Ain't Talkin' 'Bout Love - 3:47
5 - I'm The One - 3:44
6 - Jamie's Cryin' - 3:30
7 - Atomic Punk - 3:00
8 - Feel Your Love Tonight - 3:40
9 - Little Dreamer - 3:22
10 - Ice Cream Man - 3:18
11 - On Fire - 3:01

EAC-Log, CUE-Sheed & NFO:

Click to open spoiler
Exact Audio Copy V1.0 beta 1 from 15. November 2010

EAC extraction logfile from 5. November 2011, 13:36

Van Halen / Van Halen

Used drive : ASUS DRW-24B1ST Adapter: 5 ID: 0

Read mode : Secure
Utilize accurate stream : Yes
Defeat audio cache : Yes
Make use of C2 pointers : No

Read offset correction : 6
Overread into Lead-In and Lead-Out : No
Fill up missing offset samples with silence : Yes
Delete leading and trailing silent blocks : No
Null samples used in CRC calculations : Yes
Used interface : Installed external ASPI interface

Used output format : User Defined Encoder
Selected bitrate : 128 kBit/s
Quality : High
Add ID3 tag : No
Command line compressor : D:\Rec Install\lossless\lossless\Exact Audio Copy 0.9b4 + APE WV & FLAC Encoders\FLAC.EXE
Additional command line options : -8 -V %s

TOC of the extracted CD

Track | Start | Length | Start sector | End sector
———————————————————
1 | 0:00.00 | 3:35.70 | 0 | 16194
2 | 3:35.70 | 1:42.35 | 16195 | 23879
3 | 5:18.30 | 2:38.37 | 23880 | 35766
4 | 7:56.67 | 3:49.73 | 35767 | 53014
5 | 11:46.65 | 3:46.32 | 53015 | 69996
6 | 15:33.22 | 3:30.35 | 69997 | 85781
7 | 19:03.57 | 3:01.73 | 85782 | 99429
8 | 22:05.55 | 3:42.57 | 99430 | 116136
9 | 25:48.37 | 3:23.13 | 116137 | 131374
10 | 29:11.50 | 3:20.17 | 131375 | 146391
11 | 32:31.67 | 3:00.40 | 146392 | 159931

Range status and errors

Selected range

Filename G:\Torrent\# MY\Van Halen – Discography (1978-2004)\Albums (Original)\1978 – Van Halen\Van Halen – Van Halen.wav

Peak level 89.3 %
Extraction speed 0.2 X
Range quality 100.0 %
Test CRC 388DE3BA
Copy CRC 388DE3BA
Copy OK

No errors occurred

AccurateRip summary

Track 1 accurately ripped (confidence 11) [778932B5]
Track 2 accurately ripped (confidence 11) [575309DF]
Track 3 accurately ripped (confidence 11) [5BBD7F0D]
Track 4 accurately ripped (confidence 11) [6200D411]
Track 5 accurately ripped (confidence 11) [D5053A7B]
Track 6 accurately ripped (confidence 11) [DB091CE0]
Track 7 accurately ripped (confidence 11) [12E31626]
Track 8 accurately ripped (confidence 11) [502F92AE]
Track 9 accurately ripped (confidence 11) [EE0D4264]
Track 10 accurately ripped (confidence 11) [6D7D0DED]
Track 11 accurately ripped (confidence 11) [B9AE2B30]

All tracks accurately ripped

End of status report

REM GENRE “Hard Rock”
REM DATE 1978
REM DISCID 8908540B
REM COMMENT “ExactAudioCopy v1.0b1”
PERFORMER “Van Halen”
TITLE “Van Halen”
FILE “Van Halen – Van Halen.flac” WAVE
TRACK 01 AUDIO
TITLE “Runnin’ With The Devil”
PERFORMER “Van Halen”
INDEX 01 00:00:00
TRACK 02 AUDIO
TITLE “Eruption”
PERFORMER “Van Halen”
INDEX 00 03:35:12
INDEX 01 03:35:70
TRACK 03 AUDIO
TITLE “You Really Got Me”
PERFORMER “Van Halen”
INDEX 01 05:18:30
TRACK 04 AUDIO
TITLE “Ain’t Talkin’ ‘Bout Love”
PERFORMER “Van Halen”
INDEX 00 07:55:27
INDEX 01 07:56:67
TRACK 05 AUDIO
TITLE “I’m The One”
PERFORMER “Van Halen”
INDEX 00 11:44:62
INDEX 01 11:46:65
TRACK 06 AUDIO
TITLE “Jamie’s Cryin'”
PERFORMER “Van Halen”
INDEX 00 15:31:70
INDEX 01 15:33:22
TRACK 07 AUDIO
TITLE “Atomic Punk”
PERFORMER “Van Halen”
INDEX 01 19:03:57
TRACK 08 AUDIO
TITLE “Feel Your Love Tonight”
PERFORMER “Van Halen”
INDEX 00 22:04:25
INDEX 01 22:05:55
TRACK 09 AUDIO
TITLE “Little Dreamer”
PERFORMER “Van Halen”
INDEX 00 25:46:72
INDEX 01 25:48:37
TRACK 10 AUDIO
TITLE “Ice Cream Man”
PERFORMER “Van Halen”
INDEX 00 29:10:25
INDEX 01 29:11:50
TRACK 11 AUDIO
TITLE “On Fire”
PERFORMER “Van Halen”
INDEX 00 32:30:10
INDEX 01 32:31:67


Leave a Reply

Your email address will not be published. Required fields are marked *

Enter the text from the image below
 

This site uses Akismet to reduce spam. Learn how your comment data is processed.