Van Halen – Van Halen II




Artist: Van Halen
Year: 1979/1987
Genre: Rock
Notes: Discogs
Add. Notes:
Cover incl.: Yes
Encoder: FLAC
Bitrate: ~900 kBit/s (44.1 kHz/16 Bit/s)
Log & Cue incl.: Yes
Size: 216,38 MB
Password: “slam” (without ” “)


All Downloads/Hosters are compatible

Download 1
Turbobit.net
Rapidgator.net
UploadEver.com
JustUpload.io
UsersDrive.com
Download 2
Turbobit.net
Rapidgator.net
UploadEver.com
JustUpload.io
UsersDrive.com
Download 3
Turbobit.net
Rapidgator.net
UploadEver.com
JustUpload.io
UsersDrive.com

Tracklist:

1 - You're No Good - 3:12
2 - Dance The Night Away - 3:04
3 - Somebody Get Me A Doctor - 2:51
4 - Bottoms Up! - 3:04
5 - Outta Love Again - 2:49
6 - Light Up The Sky - 3:09
7 - Spanish Fly - 0:58
8 - D.O.A. - 4:07
9 - Women In Love..... - 4:05
10 - Beautiful Girls - 3:55

EAC-Log, CUE-Sheed & NFO:

Click to open spoiler
Exact Audio Copy V1.0 beta 1 from 15. November 2010

EAC extraction logfile from 6. November 2011, 2:00

Van Halen / Van Halen II

Used drive : ASUS DRW-24B1ST Adapter: 5 ID: 0

Read mode : Secure
Utilize accurate stream : Yes
Defeat audio cache : Yes
Make use of C2 pointers : No

Read offset correction : 6
Overread into Lead-In and Lead-Out : No
Fill up missing offset samples with silence : Yes
Delete leading and trailing silent blocks : No
Null samples used in CRC calculations : Yes
Used interface : Installed external ASPI
interface

Used output format : User Defined Encoder
Selected bitrate : 128 kBit/s
Quality : High
Add ID3 tag : No
Command line compressor : D:\Rec Install\lossless
\lossless\Exact Audio Copy 0.9b4 + APE WV & FLAC
Encoders\FLAC.EXE
Additional command line options : -8 -V %s

TOC of the extracted CD

Track | Start | Length | Start sector | End sector
———————————————————
1 | 0:00.00 | 3:18.17 | 0 | 14866
2 | 3:18.17 | 3:09.15 | 14867 | 29056
3 | 6:27.32 | 2:54.28 | 29057 | 42134
4 | 9:21.60 | 3:06.70 | 42135 | 56154
5 | 12:28.55 | 2:53.25 | 56155 | 69154
6 | 15:22.05 | 3:12.60 | 69155 | 83614
7 | 18:34.65 | 1:02.22 | 83615 | 88286
8 | 19:37.12 | 4:11.13 | 88287 | 107124
9 | 23:48.25 | 4:09.25 | 107125 | 125824
10 | 27:57.50 | 3:56.15 | 125825 | 143539

Range status and errors

Selected range

Filename G:\Torrent\# MY\Van Halen – Discography
(1978-2004)\Albums (Original)\1979 – Van Halen II\Van
Halen – Van Halen II.wav

Peak level 90.1 %
Extraction speed 0.6 X
Range quality 100.0 %
Test CRC B078A4C1
Copy CRC B078A4C1
Copy OK

No errors occurred

AccurateRip summary

Track 1 accurately ripped (confidence 3) [56468017]
Track 2 accurately ripped (confidence 3) [67657A4D]
Track 3 accurately ripped (confidence 3) [A8DFF9C0]
Track 4 accurately ripped (confidence 3) [E1D982E7]
Track 5 accurately ripped (confidence 3) [4669CDFA]
Track 6 accurately ripped (confidence 3) [E7C661FA]
Track 7 accurately ripped (confidence 3) [46032DB1]
Track 8 accurately ripped (confidence 3) [3108EF42]
Track 9 accurately ripped (confidence 3) [4A8DD059]
Track 10 accurately ripped (confidence 3) [419700BF]

All tracks accurately ripped

End of status report

REM GENRE “Hard Rock”
REM DATE 1979
REM DISCID 7B07790A
REM COMMENT “ExactAudioCopy v1.0b1”
PERFORMER “Van Halen”
TITLE “Van Halen II”
FILE “Van Halen – Van Halen II.flac” WAVE
TRACK 01 AUDIO
TITLE “You’re No Good”
PERFORMER “Van Halen”
INDEX 01 00:00:00
TRACK 02 AUDIO
TITLE “Dance The Night Away”
PERFORMER “Van Halen”
INDEX 00 03:16:45
INDEX 01 03:18:17
TRACK 03 AUDIO
TITLE “Somebody Get Me A Doctor”
PERFORMER “Van Halen”
INDEX 00 06:26:60
INDEX 01 06:27:32
TRACK 04 AUDIO
TITLE “Bottoms Up!”
PERFORMER “Van Halen”
INDEX 00 09:20:37
INDEX 01 09:21:60
TRACK 05 AUDIO
TITLE “Outta Love Again”
PERFORMER “Van Halen”
INDEX 00 12:27:32
INDEX 01 12:28:55
TRACK 06 AUDIO
TITLE “Light Up The Sky”
PERFORMER “Van Halen”
INDEX 00 15:21:02
INDEX 01 15:22:05
TRACK 07 AUDIO
TITLE “Spanish Fly”
PERFORMER “Van Halen”
INDEX 00 18:33:47
INDEX 01 18:34:65
TRACK 08 AUDIO
TITLE “D.O.A.”
PERFORMER “Van Halen”
INDEX 00 19:35:35
INDEX 01 19:37:12
TRACK 09 AUDIO
TITLE “Women In Love…”
PERFORMER “Van Halen”
INDEX 00 23:46:02
INDEX 01 23:48:25
TRACK 10 AUDIO
TITLE “Beautiful Girls”
PERFORMER “Van Halen”
INDEX 00 27:55:70
INDEX 01 27:57:50

Leave a Reply

Your email address will not be published. Required fields are marked *

This site uses Akismet to reduce spam. Learn how your comment data is processed.