Van Halen – OU812




Artist: Van Halen
Year: 1988
Genre: Rock
Notes: Discogs
Add. Notes:
Cover incl.: Yes
Encoder: FLAC
Bitrate: ~900 kBit/s (44.1 kHz/16 Bit/s)
Log & Cue incl.: Yes
Size: 326,36 MB
Password: “slam” (without ” “)


All Downloads/Hosters are compatible

Download 1
Turbobit.net
Rapidgator.net
UploadEver.com
JustUpload.io
UsersDrive.com
Download 2
Turbobit.net
Rapidgator.net
UploadEver.com
JustUpload.io
UsersDrive.com
Download 3
Turbobit.net
Rapidgator.net
UploadEver.com
JustUpload.io
UsersDrive.com

Tracklist:

1 - Mine All Mine - 5:11
2 - When It's Love - 5:36
3 - A.F.U. (Naturally Wired) - 4:28
4 - Cabo Wabo - 7:03
5 - Source Of Infection - 3:58
6 - Feels So Good - 4:27
7 - Finish What Ya Started - 4:20
8 - Black And Blue - 5:24
9 - Sucker In A 3 Piece - 5:52
10 - A Apolitical Blues - 3:50

EAC-Log, CUE-Sheed & NFO:

Click to open spoiler
Exact Audio Copy V1.0 beta 1 from 15. November 2010

EAC extraction logfile from 16. January 2011, 21:41

Van Halen / OU812

Used drive : Optiarc BD ROM BC-5530H Adapter: 0 ID: 1

Read mode : Secure
Utilize accurate stream : Yes
Defeat audio cache : Yes
Make use of C2 pointers : No

Read offset correction : 48
Overread into Lead-In and Lead-Out : No
Fill up missing offset samples with silence : Yes
Delete leading and trailing silent blocks : No
Null samples used in CRC calculations : Yes
Used interface : Native Win32 interface for Win NT & 2000
Gap handling : Appended to previous track

Used output format : User Defined Encoder
Selected bitrate : 320 kBit/s
Quality : High
Add ID3 tag : No
Command line compressor : C:\Program Files (x86)\Exact Audio Copy\Flac\flac.exe
Additional command line options : -V -8 -T “artist=%a” -T “title=%t” -T “album=%g” -T “date=%y” -T “tracknumber=%n” -T “genre=%m” %s

TOC of the extracted CD

Track | Start | Length | Start sector | End sector
———————————————————
1 | 0:00.33 | 5:14.30 | 33 | 23612
2 | 5:14.63 | 5:39.62 | 23613 | 49099
3 | 10:54.50 | 4:30.45 | 49100 | 69394
4 | 15:25.20 | 7:04.05 | 69395 | 101199
5 | 22:29.25 | 4:01.43 | 101200 | 119317
6 | 26:30.68 | 4:31.70 | 119318 | 139712
7 | 31:02.63 | 4:24.65 | 139713 | 159577
8 | 35:27.53 | 5:26.60 | 159578 | 184087
9 | 40:54.38 | 5:55.65 | 184088 | 210777
10 | 46:50.28 | 3:51.65 | 210778 | 228167

Track 1

Filename C:\EAC Rips\Van Halen – 1988 – OU812 [FLAC]\01 – Mine All Mine.wav

Pre-gap length 0:00:02.44

Peak level 72.9 %
Extraction speed 10.5 X
Track quality 100.0 %
Test CRC 815DF297
Copy CRC 815DF297
Accurately ripped (confidence 89) [269FFFEA]
Copy OK

Track 2

Filename C:\EAC Rips\Van Halen – 1988 – OU812 [FLAC]\02 – When It’s Love.wav

Pre-gap length 0:00:01.93

Peak level 100.0 %
Extraction speed 12.0 X
Track quality 100.0 %
Test CRC 41061BE7
Copy CRC 41061BE7
Accurately ripped (confidence 88) [B7D862FC]
Copy OK

Track 3

Filename C:\EAC Rips\Van Halen – 1988 – OU812 [FLAC]\03 – A.F.U. (Naturally Wired).wav

Pre-gap length 0:00:01.93

Peak level 91.9 %
Extraction speed 13.0 X
Track quality 100.0 %
Test CRC 923394AF
Copy CRC 923394AF
Accurately ripped (confidence 89) [E89D8910]
Copy OK

Track 4

Filename C:\EAC Rips\Van Halen – 1988 – OU812 [FLAC]\04 – Cabo Wabo.wav

Pre-gap length 0:00:01.86

Peak level 78.0 %
Extraction speed 13.7 X
Track quality 99.9 %
Test CRC DDC32F80
Copy CRC DDC32F80
Accurately ripped (confidence 88) [930D9245]
Copy OK

Track 5

Filename C:\EAC Rips\Van Halen – 1988 – OU812 [FLAC]\05 – Source Of Infection.wav

Pre-gap length 0:00:01.80

Peak level 97.5 %
Extraction speed 14.9 X
Track quality 100.0 %
Test CRC C69BB2B7
Copy CRC C69BB2B7
Accurately ripped (confidence 88) [03F9F5A6]
Copy OK

Track 6

Filename C:\EAC Rips\Van Halen – 1988 – OU812 [FLAC]\06 – Feels So Good.wav

Pre-gap length 0:00:02.04

Peak level 77.7 %
Extraction speed 15.8 X
Track quality 100.0 %
Test CRC FBEE6081
Copy CRC FBEE6081
Accurately ripped (confidence 89) [B38D4D5E]
Copy OK

Track 7

Filename C:\EAC Rips\Van Halen – 1988 – OU812 [FLAC]\07 – Finish What Ya Started.wav

Pre-gap length 0:00:00.26

Peak level 74.6 %
Extraction speed 16.6 X
Track quality 100.0 %
Test CRC 4B0B2A21
Copy CRC 4B0B2A21
Accurately ripped (confidence 86) [AD1650D0]
Copy OK

Track 8

Filename C:\EAC Rips\Van Halen – 1988 – OU812 [FLAC]\08 – Black And Blue.wav

Pre-gap length 0:00:01.73

Peak level 74.9 %
Extraction speed 17.4 X
Track quality 100.0 %
Test CRC F13EBC1D
Copy CRC F13EBC1D
Accurately ripped (confidence 84) [62F7AC67]
Copy OK

Track 9

Filename C:\EAC Rips\Van Halen – 1988 – OU812 [FLAC]\09 – Sucker In A 3 Piece.wav

Pre-gap length 0:00:01.17

Peak level 76.8 %
Extraction speed 18.1 X
Track quality 100.0 %
Test CRC 594993B6
Copy CRC 594993B6
Accurately ripped (confidence 86) [46148B7F]
Copy OK

Track 10

Filename C:\EAC Rips\Van Halen – 1988 – OU812 [FLAC]\10 – A Apolitical Blues.wav

Pre-gap length 0:00:02.66

Peak level 94.8 %
Extraction speed 18.5 X
Track quality 100.0 %
Test CRC D67DD721
Copy CRC D67DD721
Accurately ripped (confidence 86) [A5C79990]
Copy OK

All tracks accurately ripped

No errors occurred

End of status report

==== Log checksum FF7141C9EB37AD569680EE4D22D1CE06ED06AA8531A97AABC8CFDBA5D4D16CB3 ====

REM GENRE “Hard Rock”
REM DATE 1988
REM DISCID 890BE20A
REM COMMENT “ExactAudioCopy v1.0b1”
FILE “01 – Mine All Mine.wav” WAVE
TRACK 01 AUDIO
PREGAP 00:00:33
INDEX 01 00:00:00
TRACK 02 AUDIO
INDEX 00 05:12:35
FILE “02 – When It’s Love.wav” WAVE
INDEX 01 00:00:00
TRACK 03 AUDIO
INDEX 00 05:37:67
FILE “03 – A.F.U. (Naturally Wired).wav” WAVE
INDEX 01 00:00:00
TRACK 04 AUDIO
INDEX 00 04:28:55
FILE “04 – Cabo Wabo.wav” WAVE
INDEX 01 00:00:00
TRACK 05 AUDIO
INDEX 00 07:02:20
FILE “05 – Source Of Infection.wav” WAVE
INDEX 01 00:00:00
TRACK 06 AUDIO
INDEX 00 03:59:40
FILE “06 – Feels So Good.wav” WAVE
INDEX 01 00:00:00
TRACK 07 AUDIO
INDEX 00 04:31:50
FILE “07 – Finish What Ya Started.wav” WAVE
INDEX 01 00:00:00
TRACK 08 AUDIO
INDEX 00 04:23:10
FILE “08 – Black And Blue.wav” WAVE
INDEX 01 00:00:00
TRACK 09 AUDIO
INDEX 00 05:25:47
FILE “09 – Sucker In A 3 Piece.wav” WAVE
INDEX 01 00:00:00
TRACK 10 AUDIO
INDEX 00 05:53:15
FILE “10 – A Apolitical Blues.wav” WAVE
INDEX 01 00:00:00

Leave a Reply

Your email address will not be published. Required fields are marked *

This site uses Akismet to reduce spam. Learn how your comment data is processed.