Van Halen – Fair Warning




Artist: Van Halen
Year: 1981/1987
Genre: Rock
Notes: Discogs
Add. Notes:
Cover incl.: Yes
Encoder: FLAC
Bitrate: ~900 kBit/s (44.1 kHz/16 Bit/s)
Log & Cue incl.: Yes
Size: 227,57 MB
Password: “slam” (without ” “)


All Downloads/Hosters are compatible

Download 1
Turbobit.net
Rapidgator.net
UploadByte.com
UploadEver.com
JustUpload.io
Download 2
Turbobit.net
Rapidgator.net
UploadByte.com
UploadEver.com
JustUpload.io
Download 3
Turbobit.net
Rapidgator.net
UploadByte.com
UploadEver.com
JustUpload.io

Tracklist:

1 - Mean Street - 4:55
2 - "Dirty Movies" - 4:06
3 - Sinner's Swing! - 3:08
4 - Hear About It Later - 4:33
5 - Unchained - 3:27
6 - Push Comes To Shove - 3:48
7 - So This Is Love? - 3:05
8 - Sunday Afternoon In The Park - 2:00
9 - One Foot Out The Door - 1:56

EAC-Log, CUE-Sheed & NFO:

Click to open spoiler
Exact Audio Copy V1.0 beta 1 from 15. November 2010

EAC extraction logfile from 6. November 2011, 2:49

Van Halen / Fair Warning

Used drive : ASUS DRW-24B1ST Adapter: 5 ID: 0

Read mode : Secure
Utilize accurate stream : Yes
Defeat audio cache : Yes
Make use of C2 pointers : No

Read offset correction : 6
Overread into Lead-In and Lead-Out : No
Fill up missing offset samples with silence : Yes
Delete leading and trailing silent blocks : No
Null samples used in CRC calculations : Yes
Used interface : Installed external ASPI interface

Used output format : User Defined Encoder
Selected bitrate : 128 kBit/s
Quality : High
Add ID3 tag : No
Command line compressor : D:\Rec Install\lossless\lossless\Exact Audio Copy 0.9b4 + APE WV & FLAC Encoders\FLAC.EXE
Additional command line options : -8 -V %s

TOC of the extracted CD

Track | Start | Length | Start sector | End sector
———————————————————
1 | 0:00.00 | 5:01.15 | 0 | 22589
2 | 5:01.15 | 4:07.53 | 22590 | 41167
3 | 9:08.68 | 3:09.50 | 41168 | 55392
4 | 12:18.43 | 4:34.15 | 55393 | 75957
5 | 16:52.58 | 3:29.52 | 75958 | 91684
6 | 20:22.35 | 3:48.63 | 91685 | 108847
7 | 24:11.23 | 3:06.62 | 108848 | 122859
8 | 27:18.10 | 1:58.18 | 122860 | 131727
9 | 29:16.28 | 1:57.45 | 131728 | 140547

Range status and errors

Selected range

Filename G:\Torrent\# MY\Van Halen – Discography (1978-2004)\Albums (Original)\1981 – Fair Warning\Van Halen – Fair Warning.wav

Peak level 99.9 %
Extraction speed 0.1 X
Range quality 100.0 %
Test CRC A8E57B17
Copy CRC A8E57B17
Copy OK

No errors occurred

AccurateRip summary

Track 1 accurately ripped (confidence 2) [CBEB520E]
Track 2 accurately ripped (confidence 2) [BCC2C6DA]
Track 3 accurately ripped (confidence 2) [3CF222BE]
Track 4 accurately ripped (confidence 2) [C3298571]
Track 5 accurately ripped (confidence 2) [FF0E9F5C]
Track 6 accurately ripped (confidence 2) [2DE9ACD5]
Track 7 accurately ripped (confidence 2) [474CCACB]
Track 8 accurately ripped (confidence 2) [E8322FF7]
Track 9 accurately ripped (confidence 2) [1752A2B1]

All tracks accurately ripped

End of status report

REM GENRE “Hard Rock”
REM DATE 1981
REM DISCID 59075109
REM COMMENT “ExactAudioCopy v1.0b1”
PERFORMER “Van Halen”
TITLE “Fair Warning”
FILE “Van Halen – Fair Warning.flac” WAVE
TRACK 01 AUDIO
TITLE “Mean Street”
PERFORMER “Van Halen”
INDEX 01 00:00:00
TRACK 02 AUDIO
TITLE “‘Dirty Movies'”
PERFORMER “Van Halen”
INDEX 00 05:00:70
INDEX 01 05:01:15
TRACK 03 AUDIO
TITLE “Sinner’s Swing!”
PERFORMER “Van Halen”
INDEX 00 09:08:20
INDEX 01 09:08:68
TRACK 04 AUDIO
TITLE “Hear About It Later”
PERFORMER “Van Halen”
INDEX 00 12:17:30
INDEX 01 12:18:43
TRACK 05 AUDIO
TITLE “Unchained”
PERFORMER “Van Halen”
INDEX 00 16:50:23
INDEX 01 16:52:58
TRACK 06 AUDIO
TITLE “Push Comes To Shove”
PERFORMER “Van Halen”
INDEX 00 20:21:28
INDEX 01 20:22:35
TRACK 07 AUDIO
TITLE “So This Is Love?”
PERFORMER “Van Halen”
INDEX 00 24:10:53
INDEX 01 24:11:23
TRACK 08 AUDIO
TITLE “Sunday Afternoon In The Park”
PERFORMER “Van Halen”
INDEX 00 27:16:68
INDEX 01 27:18:10
TRACK 09 AUDIO
TITLE “One Foot Out The Door”
PERFORMER “Van Halen”
INDEX 01 29:16:28

Leave a Reply

Your email address will not be published. Required fields are marked *

Enter the text from the image below
 

This site uses Akismet to reduce spam. Learn how your comment data is processed.