Van Halen – Diver Down




Artist: Van Halen
Year: 1982/1987
Genre: Metal
Notes: Discogs
Add. Notes:
Encoder: FLAC
Bitrate: ~900 kBit/s (44.1 kHz/16 Bit/s)
Bin/Cue incl.: Yes
Size: 209,55 MB
Password: “slam” (without ” “)


http://www.share-online.biz/dl/R4BNYSRPYJFH
https://rapidgator.net/file/c84f0f2346c666959b6e04126c83ae3a
https://uploadbyte.com/ybbgp669y4ns
https://justupload.io/hmhamcpkriik
https://uploadever.com/ovnf4lc40jkc

Tracklist:

1 - Where Have All The Good Times Gone! - 3:02
2 - Hang 'Em High - 3:28
3 - Cathedral - 1:20
4 - Secrets - 3:25
5 - Intruder - 1:39
6 - (Oh) Pretty Woman - 2:54
7 - Dancing In The Street - 3:43
8 - Little Guitars (Intro) - 0:42
9 - Little Guitars - 3:47
10 - Big Bad Bill (Is Sweet William Now) - 2:44
11 - The Full Bug - 3:18
12 - Happy Trails - 1:03

EAC-Log, CUE-Sheed & NFO:

Click to open spoiler
Exact Audio Copy V1.0 beta 1 from 15. November 2010

EAC extraction logfile from 6. November 2011, 3:11

Van Halen / Diver Down

Used drive : ASUS DRW-24B1ST Adapter: 5 ID: 0

Read mode : Secure
Utilize accurate stream : Yes
Defeat audio cache : Yes
Make use of C2 pointers : No

Read offset correction : 6
Overread into Lead-In and Lead-Out : No
Fill up missing offset samples with silence : Yes
Delete leading and trailing silent blocks : No
Null samples used in CRC calculations : Yes
Used interface : Installed external ASPI interface

Used output format : User Defined Encoder
Selected bitrate : 128 kBit/s
Quality : High
Add ID3 tag : No
Command line compressor : D:\Rec Install\lossless\lossless\Exact Audio Copy 0.9b4 + APE WV & FLAC Encoders\FLAC.EXE
Additional command line options : -8 -V %s

TOC of the extracted CD

Track | Start | Length | Start sector | End sector
———————————————————
1 | 0:00.00 | 3:06.47 | 0 | 13996
2 | 3:06.47 | 3:30.13 | 13997 | 29759
3 | 6:36.60 | 1:22.57 | 29760 | 35966
4 | 7:59.42 | 3:26.65 | 35967 | 51481
5 | 11:26.32 | 1:40.05 | 51482 | 58986
6 | 13:06.37 | 2:54.45 | 58987 | 72081
7 | 16:01.07 | 3:45.68 | 72082 | 89024
8 | 19:47.00 | 0:42.12 | 89025 | 92186
9 | 20:29.12 | 3:48.53 | 92187 | 109339
10 | 24:17.65 | 2:45.05 | 109340 | 121719
11 | 27:02.70 | 3:21.02 | 121720 | 136796
12 | 30:23.72 | 1:05.30 | 136797 | 141701

Range status and errors

Selected range

Filename G:\Torrent\# MY\Van Halen – Discography (1978-2004)\Albums (Original)\1982 – Diver Down\Van Halen – Diver Down.wav

Peak level 100.0 %
Extraction speed 0.0 X
Range quality 100.0 %
Test CRC FF58F255
Copy CRC FF58F255
Copy OK

No errors occurred

AccurateRip summary

Track 1 accurately ripped (confidence 4) [0E460A69]
Track 2 accurately ripped (confidence 4) [F3D9EE26]
Track 3 accurately ripped (confidence 4) [DB40630C]
Track 4 accurately ripped (confidence 4) [A61F95D3]
Track 5 accurately ripped (confidence 4) [8291BA7B]
Track 6 accurately ripped (confidence 4) [3338D25E]
Track 7 accurately ripped (confidence 4) [75CB412B]
Track 8 accurately ripped (confidence 4) [37103A5B]
Track 9 accurately ripped (confidence 4) [C23F906A]
Track 10 accurately ripped (confidence 4) [6B5EEC60]
Track 11 accurately ripped (confidence 4) [0C313C0E]
Track 12 accurately ripped (confidence 4) [C57BD0C6]

All tracks accurately ripped

End of status report

REM GENRE “Hard Rock”
REM DATE 1982
REM DISCID BD07610C
REM COMMENT “ExactAudioCopy v1.0b1”
PERFORMER “Van Halen”
TITLE “Diver Down”
FILE “Van Halen – Diver Down.flac” WAVE
TRACK 01 AUDIO
TITLE “Where Have All The Good Times Gone!”
PERFORMER “Van Halen”
INDEX 01 00:00:00
TRACK 02 AUDIO
TITLE “Hang ‘Em High”
PERFORMER “Van Halen”
INDEX 01 03:06:47
TRACK 03 AUDIO
TITLE “Cathedral”
PERFORMER “Van Halen”
INDEX 01 06:36:60
TRACK 04 AUDIO
TITLE “Secrets”
PERFORMER “Van Halen”
INDEX 01 07:59:42
TRACK 05 AUDIO
TITLE “Intruder”
PERFORMER “Van Halen”
INDEX 01 11:26:32
TRACK 06 AUDIO
TITLE “(Oh) Pretty Woman”
PERFORMER “Van Halen”
INDEX 01 13:06:37
TRACK 07 AUDIO
TITLE “Dancing In The Street”
PERFORMER “Van Halen”
INDEX 01 16:01:07
TRACK 08 AUDIO
TITLE “Little Guitars (Intro)”
PERFORMER “Van Halen”
INDEX 01 19:47:00
TRACK 09 AUDIO
TITLE “Little Guitars”
PERFORMER “Van Halen”
INDEX 01 20:29:12
TRACK 10 AUDIO
TITLE “Big Bad Bill (Is Sweet William Now)”
PERFORMER “Van Halen”
INDEX 01 24:17:65
TRACK 11 AUDIO
TITLE “The Full Bug”
PERFORMER “Van Halen”
INDEX 01 27:02:70
TRACK 12 AUDIO
TITLE “Happy Trails”
PERFORMER “Van Halen”
INDEX 01 30:23:72

Leave a Reply

Your email address will not be published. Required fields are marked *

This site uses Akismet to reduce spam. Learn how your comment data is processed.