Van Halen – 5150




Artist: Van Halen
Year: 1986
Genre: Rock
Notes: Discogs
Add. Notes:
Encoder: FLAC
Bitrate: ~900 kBit/s (44.1 kHz/16 Bit/s)
Bin/Cue incl.: Yes
Size: 303,35 MB
Password: “slam” (without ” “)


http://www.share-online.biz/dl/I8BJKRRPD7X
https://rapidgator.net/file/70023afa937438403bbbf55b8c0812ad
https://uploadbyte.com/38geo3odtzhx
https://uploadever.com/u8g1ayn5op8m

Tracklist:

1 - Good Enough - 4:00
2 - Why Can't This Be Love - 3:45
3 - Get Up - 4:35
4 - Dreams - 4:54
5 - Summer Nights - 5:04
6 - Best Of Both Worlds - 4:49
7 - Love Walks In - 5:09
8 - "5150" - 5:44
9 - Inside - 5:02

EAC-Log, CUE-Sheed & NFO:

Click to open spoiler
Exact Audio Copy V1.0 beta 1 from 15. November 2010

EAC extraction logfile from 6. November 2011, 4:32

Van Halen / 5150

Used drive : ASUS DRW-24B1ST Adapter: 5 ID: 0

Read mode : Secure
Utilize accurate stream : Yes
Defeat audio cache : Yes
Make use of C2 pointers : No

Read offset correction : 6
Overread into Lead-In and Lead-Out : No
Fill up missing offset samples with silence : Yes
Delete leading and trailing silent blocks : No
Null samples used in CRC calculations : Yes
Used interface : Installed external ASPI interface

Used output format : User Defined Encoder
Selected bitrate : 128 kBit/s
Quality : High
Add ID3 tag : No
Command line compressor : D:\Rec Install\lossless\lossless\Exact Audio Copy 0.9b4 + APE WV & FLAC Encoders\FLAC.EXE
Additional command line options : -8 -V %s

TOC of the extracted CD

Track | Start | Length | Start sector | End sector
———————————————————
1 | 0:00.00 | 4:05.08 | 0 | 18382
2 | 4:05.08 | 3:47.65 | 18383 | 35472
3 | 7:52.73 | 4:37.17 | 35473 | 56264
4 | 12:30.15 | 4:54.08 | 56265 | 78322
5 | 17:24.23 | 5:06.12 | 78323 | 101284
6 | 22:30.35 | 4:49.00 | 101285 | 122959
7 | 27:19.35 | 5:11.10 | 122960 | 146294
8 | 32:30.45 | 5:44.08 | 146295 | 172102
9 | 38:14.53 | 5:01.65 | 172103 | 194742

Range status and errors

Selected range

Filename G:\Torrent\# MY\Van Halen – Discography (1978-2004)\Albums (Original)\1986 – 5150\Van Halen – 5150.wav

Peak level 93.2 %
Extraction speed 0.6 X
Range quality 100.0 %
Test CRC B87AE2DB
Copy CRC B87AE2DB
Copy OK

No errors occurred

AccurateRip summary

Track 1 accurately ripped (confidence 4) [69FE0F24]
Track 2 accurately ripped (confidence 4) [378500D4]
Track 3 accurately ripped (confidence 4) [AA7F6B53]
Track 4 accurately ripped (confidence 4) [43E69466]
Track 5 accurately ripped (confidence 4) [90B65A4E]
Track 6 accurately ripped (confidence 4) [DF5A4B40]
Track 7 accurately ripped (confidence 4) [CA4B3F5C]
Track 8 accurately ripped (confidence 4) [574DCAEA]
Track 9 accurately ripped (confidence 4) [96248268]

All tracks accurately ripped

End of status report

REM GENRE “Hard Rock”
REM DATE 1986
REM DISCID 720A2409
REM COMMENT “ExactAudioCopy v1.0b1”
PERFORMER “Van Halen”
TITLE “5150”
FILE “Van Halen – 5150.flac” WAVE
TRACK 01 AUDIO
TITLE “Good Enough”
PERFORMER “Van Halen”
INDEX 01 00:00:00
TRACK 02 AUDIO
TITLE “Why Can’t This Be Love”
PERFORMER “Van Halen”
INDEX 00 04:02:73
INDEX 01 04:05:08
TRACK 03 AUDIO
TITLE “Get Up”
PERFORMER “Van Halen”
INDEX 00 07:51:60
INDEX 01 07:52:73
TRACK 04 AUDIO
TITLE “Dreams”
PERFORMER “Van Halen”
INDEX 00 12:28:20
INDEX 01 12:30:15
TRACK 05 AUDIO
TITLE “Summer Nights”
PERFORMER “Van Halen”
INDEX 00 17:21:60
INDEX 01 17:24:23
TRACK 06 AUDIO
TITLE “Best Of Both Worlds”
PERFORMER “Van Halen”
INDEX 00 22:26:38
INDEX 01 22:30:35
TRACK 07 AUDIO
TITLE “Love Walks In”
PERFORMER “Van Halen”
INDEX 00 27:18:03
INDEX 01 27:19:35
TRACK 08 AUDIO
TITLE “‘5150′”
PERFORMER “Van Halen”
INDEX 00 32:28:65
INDEX 01 32:30:45
TRACK 09 AUDIO
TITLE “Inside”
PERFORMER “Van Halen”
INDEX 00 38:12:23
INDEX 01 38:14:53

Leave a Reply

Your email address will not be published. Required fields are marked *

This site uses Akismet to reduce spam. Learn how your comment data is processed.