Van Halen – 1984




No Cover available

Artist: Van Halen
Year: 1984
Genre: Rock
Notes: Discogs
Add. Notes:
Watch Songs on: YouTube
Cover incl.: Yes
Encoder: FLAC
Bitrate: ~900 kBit/s (44.1 kHz/16 Bit/s)
Log & Cue incl.: Yes/Yes
Size: 230,4 MB
Password: “slam” (without ” “)


All Downloads/Hosters are compatible

Download 1
KatFile.com
Turbobit.net
Rapidgator.net
FileFactory.com
Download 2
KatFile.com
Turbobit.net
Rapidgator.net
FileFactory.com

Tracklist:

1 - 1984 - 1:07
2 - Jump - 4:04
3 - Panama - 3:31
4 - Top Jimmy - 2:59
5 - Drop Dead Legs - 4:13
6 - Hot For Teacher - 4:42
7 - I'll Wait - 4:41
8 - Girl Gone Bad - 4:33
9 - House Of Pain - 3:18

EAC-Log, CUE-Sheed & NFO:

Click to open spoiler
Exact Audio Copy V1.0 beta 1 from 15. November 2010

EAC extraction logfile from 6. November 2011, 3:38

Van Halen / 1984

Used drive : ASUS DRW-24B1ST Adapter: 5 ID: 0

Read mode : Secure
Utilize accurate stream : Yes
Defeat audio cache : Yes
Make use of C2 pointers : No

Read offset correction : 6
Overread into Lead-In and Lead-Out : No
Fill up missing offset samples with silence : Yes
Delete leading and trailing silent blocks : No
Null samples used in CRC calculations : Yes
Used interface : Installed external ASPI
interface

Used output format : User Defined Encoder
Selected bitrate : 128 kBit/s
Quality : High
Add ID3 tag : No
Command line compressor : D:\Rec Install\lossless
\lossless\Exact Audio Copy 0.9b4 + APE WV & FLAC
Encoders\FLAC.EXE
Additional command line options : -8 -V %s

TOC of the extracted CD

Track | Start | Length | Start sector | End sector
———————————————————
1 | 0:00.00 | 1:08.18 | 0 | 5117
2 | 1:08.18 | 4:03.27 | 5118 | 23369
3 | 5:11.45 | 3:32.55 | 23370 | 39324
4 | 8:44.25 | 3:02.20 | 39325 | 52994
5 | 11:46.45 | 4:13.70 | 52995 | 72039
6 | 16:00.40 | 4:44.70 | 72040 | 93409
7 | 20:45.35 | 4:44.30 | 93410 | 114739
8 | 25:29.65 | 4:35.15 | 114740 | 135379
9 | 30:05.05 | 3:18.20 | 135380 | 150249

Range status and errors

Selected range

Filename G:\Torrent\# MY\Van Halen – Discography
(1978-2004)\Albums (Original)\1984 – 1984\Van Halen –
1984.wav

Peak level 96.3 %
Extraction speed 0.2 X
Range quality 99.9 %
Test CRC B7A5CE11
Copy CRC B7A5CE11
Copy OK

No errors occurred

AccurateRip summary

Track 1 accurately ripped (confidence 24) [0F75B522]
Track 2 accurately ripped (confidence 25) [4A8A2887]
Track 3 accurately ripped (confidence 25) [CA9486EE]
Track 4 accurately ripped (confidence 25) [054AD32C]
Track 5 accurately ripped (confidence 25) [63A6D825]
Track 6 accurately ripped (confidence 24) [B37C518F]
Track 7 accurately ripped (confidence 25) [F14FD2CD]
Track 8 accurately ripped (confidence 25) [287A62E2]
Track 9 accurately ripped (confidence 25) [73959533]

All tracks accurately ripped

End of status report

REM GENRE “Hard Rock”
REM DATE 1984
REM DISCID 6507D309
REM COMMENT “ExactAudioCopy v1.0b1”
PERFORMER “Van Halen”
TITLE “1984”
FILE “Van Halen – 1984.flac” WAVE
TRACK 01 AUDIO
TITLE “1984”
PERFORMER “Van Halen”
INDEX 01 00:00:00
TRACK 02 AUDIO
TITLE “Jump”
PERFORMER “Van Halen”
INDEX 01 01:08:18
TRACK 03 AUDIO
TITLE “Panama”
PERFORMER “Van Halen”
INDEX 00 05:09:68
INDEX 01 05:11:45
TRACK 04 AUDIO
TITLE “Top Jimmy”
PERFORMER “Van Halen”
INDEX 00 08:42:28
INDEX 01 08:44:25
TRACK 05 AUDIO
TITLE “Drop Dead Legs”
PERFORMER “Van Halen”
INDEX 00 11:44:10
INDEX 01 11:46:45
TRACK 06 AUDIO
TITLE “Hot For Teacher”
PERFORMER “Van Halen”
INDEX 00 15:59:28
INDEX 01 16:00:40
TRACK 07 AUDIO
TITLE “I’ll Wait”
PERFORMER “Van Halen”
INDEX 00 20:43:05
INDEX 01 20:45:35
TRACK 08 AUDIO
TITLE “Girl Gone Bad”
PERFORMER “Van Halen”
INDEX 00 25:26:40
INDEX 01 25:29:65
TRACK 09 AUDIO
TITLE “House Of Pain”
PERFORMER “Van Halen”
INDEX 00 30:03:23
INDEX 01 30:05:05


Leave a Reply

Your email address will not be published. Required fields are marked *

This site uses Akismet to reduce spam. Learn how your comment data is processed.