Vampire Weekend – Father of the Bride




No Cover available

Artist: Vampire Weekend
Year: 2019
Genre: Rock
Notes: Discogs
Add. Notes:
Watch Songs on: YouTube
Cover incl.: Yes
Encoder: FLAC
Bitrate: ~800 kBit/s (44.1 kHz/16 Bit/s)
Log & Cue incl.: Yes
Size: 357,7 MB
Password: “slam” (without ” “)


All Downloads/Hosters are compatible

Download 1
KatFile.com
Turbobit.net
Rapidgator.net
FileFactory.com
Download 2
KatFile.com
Turbobit.net
Rapidgator.net
FileFactory.com

Tracklist:

1 - Hold You Now - 2:33
2 - Harmony Hall - 5:08
3 - Bambina - 1:42
4 - This Life - 4:28
5 - Big Blue - 1:48
6 - How Long? - 3:32
7 - Unbearably White - 4:40
8 - Rich Man - 2:29
9 - Married In A Gold Rush - 3:42
10 - My Mistake - 3:18
11 - Sympathy - 3:46
12 - Sunflower - 2:17
13 - Flower Moon - 3:57
14 - 2021 - 1:38
15 - We Belong Together - 3:10
16 - Stranger - 4:08
17 - Spring Snow - 2:41
18 - Jerusalem, New York, Berlin - 2:54

EAC-Log, CUE-Sheed & NFO:

Click to open spoiler
Exact Audio Copy V1.3 from 2. September 2016

EAC extraction logfile from 2. May 2019, 16:36

Vampire Weekend / Father of the Bride

Used drive : PLEXTOR DVDR PX-716A Adapter: 1 ID: 1

Read mode : Secure
Utilize accurate stream : Yes
Defeat audio cache : Yes
Make use of C2 pointers : No

Read offset correction : 30
Overread into Lead-In and Lead-Out : Yes
Fill up missing offset samples with silence : Yes
Delete leading and trailing silent blocks : No
Null samples used in CRC calculations : Yes
Used interface : Native Win32 interface for Win NT & 2000
Gap handling : Appended to previous track

Used output format : User Defined Encoder
Selected bitrate : 1024 kBit/s
Quality : High
Add ID3 tag : No
Command line compressor : C:\Program Files (x86)\Exact Audio Copy\Flac\flac.exe
Additional command line options : -8 -e -p -V -T “ARTIST=%artist%” -T “TITLE=%title%” -T “ALBUM=%albumtitle%” -T “DATE=%year%” -T “TRACKNUMBER=%tracknr%” -T “GENRE=%genre%” -T “PERFORMER=%albuminterpret%” -T “COMPOSER=%composer%” %haslyrics%–tag-from-file=LYRICS=”%lyricsfile%”%haslyrics% -T “ALBUMARTIST=%albumartist%” -T “DISCNUMBER=%cdnumber%” -T “TOTALDISCS=%totalcds%” -T “TOTALTRACKS=%numtracks%” -T “COMMENT=%comment%” %source% -o %dest%

TOC of the extracted CD

Track | Start | Length | Start sector | End sector
———————————————————
1 | 0:00.00 | 2:33.59 | 0 | 11533
2 | 2:33.59 | 5:08.31 | 11534 | 34664
3 | 7:42.15 | 1:42.51 | 34665 | 42365
4 | 9:24.66 | 4:28.45 | 42366 | 62510
5 | 13:53.36 | 1:48.42 | 62511 | 70652
6 | 15:42.03 | 3:32.19 | 70653 | 86571
7 | 19:14.22 | 4:40.15 | 86572 | 107586
8 | 23:54.37 | 2:29.74 | 107587 | 118835
9 | 26:24.36 | 3:42.28 | 118836 | 135513
10 | 30:06.64 | 3:18.72 | 135514 | 150435
11 | 33:25.61 | 3:46.55 | 150436 | 167440
12 | 37:12.41 | 2:17.45 | 167441 | 177760
13 | 39:30.11 | 3:57.26 | 177761 | 195561
14 | 43:27.37 | 1:38.49 | 195562 | 202960
15 | 45:06.11 | 3:10.55 | 202961 | 217265
16 | 48:16.66 | 4:08.71 | 217266 | 235936
17 | 52:25.62 | 2:41.35 | 235937 | 248046
18 | 55:07.22 | 2:54.49 | 248047 | 261145

Track 1

Filename C:\rips\Vampire Weekend – Father of the Bride (2019) [FLAC] {19075930132}\01 – Hold You Now (feat. Danielle Haim).wav

Pre-gap length 0:00:02.00

Peak level 100.0 %
Extraction speed 7.9 X
Track quality 100.0 %
Test CRC BABF5FFF
Copy CRC BABF5FFF
Track not present in AccurateRip database
Copy OK

Track 2

Filename C:\rips\Vampire Weekend – Father of the Bride (2019) [FLAC] {19075930132}\02 – Harmony Hall.wav

Peak level 100.0 %
Extraction speed 8.3 X
Track quality 99.9 %
Test CRC 4EEA022C
Copy CRC 4EEA022C
Track not present in AccurateRip database
Copy OK

Track 3

Filename C:\rips\Vampire Weekend – Father of the Bride (2019) [FLAC] {19075930132}\03 – Bambina.wav

Peak level 100.0 %
Extraction speed 9.2 X
Track quality 100.0 %
Test CRC 24FAA692
Copy CRC 24FAA692
Track not present in AccurateRip database
Copy OK

Track 4

Filename C:\rips\Vampire Weekend – Father of the Bride (2019) [FLAC] {19075930132}\04 – This Life.wav

Peak level 100.0 %
Extraction speed 9.1 X
Track quality 99.9 %
Test CRC ECCD4E26
Copy CRC ECCD4E26
Track not present in AccurateRip database
Copy OK

Track 5

Filename C:\rips\Vampire Weekend – Father of the Bride (2019) [FLAC] {19075930132}\05 – Big Blue.wav

Peak level 100.0 %
Extraction speed 8.0 X
Track quality 99.9 %
Test CRC B803CC47
Copy CRC B803CC47
Track not present in AccurateRip database
Copy OK

Track 6

Filename C:\rips\Vampire Weekend – Father of the Bride (2019) [FLAC] {19075930132}\06 – How Long.wav

Peak level 100.0 %
Extraction speed 11.0 X
Track quality 100.0 %
Test CRC E2B6B3C6
Copy CRC E2B6B3C6
Track not present in AccurateRip database
Copy OK

Track 7

Filename C:\rips\Vampire Weekend – Father of the Bride (2019) [FLAC] {19075930132}\07 – Unbearably White.wav

Peak level 100.0 %
Extraction speed 10.7 X
Track quality 99.9 %
Test CRC DEEDCDBA
Copy CRC DEEDCDBA
Track not present in AccurateRip database
Copy OK

Track 8

Filename C:\rips\Vampire Weekend – Father of the Bride (2019) [FLAC] {19075930132}\08 – Rich Man.wav

Peak level 100.0 %
Extraction speed 12.0 X
Track quality 100.0 %
Test CRC 9C4CFCD7
Copy CRC 9C4CFCD7
Track not present in AccurateRip database
Copy OK

Track 9

Filename C:\rips\Vampire Weekend – Father of the Bride (2019) [FLAC] {19075930132}\09 – Married in a Gold Rush (feat. Danielle Haim).wav

Peak level 100.0 %
Extraction speed 12.9 X
Track quality 100.0 %
Test CRC C022E8CE
Copy CRC C022E8CE
Track not present in AccurateRip database
Copy OK

Track 10

Filename C:\rips\Vampire Weekend – Father of the Bride (2019) [FLAC] {19075930132}\10 – My Mistake.wav

Peak level 99.0 %
Extraction speed 13.2 X
Track quality 100.0 %
Test CRC 516B55F5
Copy CRC 516B55F5
Track not present in AccurateRip database
Copy OK

Track 11

Filename C:\rips\Vampire Weekend – Father of the Bride (2019) [FLAC] {19075930132}\11 – Sympathy.wav

Peak level 100.0 %
Extraction speed 11.7 X
Track quality 99.9 %
Test CRC CCE7324E
Copy CRC CCE7324E
Track not present in AccurateRip database
Copy OK

Track 12

Filename C:\rips\Vampire Weekend – Father of the Bride (2019) [FLAC] {19075930132}\12 – Sunflower (feat. Steve Lacy).wav

Peak level 100.0 %
Extraction speed 13.7 X
Track quality 100.0 %
Test CRC 6C24D768
Copy CRC 6C24D768
Track not present in AccurateRip database
Copy OK

Track 13

Filename C:\rips\Vampire Weekend – Father of the Bride (2019) [FLAC] {19075930132}\13 – Flower Moon (feat. Steve Lacy).wav

Peak level 100.0 %
Extraction speed 12.4 X
Track quality 99.9 %
Test CRC 5F703EEF
Copy CRC 5F703EEF
Track not present in AccurateRip database
Copy OK

Track 14

Filename C:\rips\Vampire Weekend – Father of the Bride (2019) [FLAC] {19075930132}\14 – 2021.wav

Peak level 100.0 %
Extraction speed 13.5 X
Track quality 100.0 %
Test CRC 8AB7DBE9
Copy CRC 8AB7DBE9
Track not present in AccurateRip database
Copy OK

Track 15

Filename C:\rips\Vampire Weekend – Father of the Bride (2019) [FLAC] {19075930132}\15 – We Belong Together (feat. Danielle Haim).wav

Peak level 100.0 %
Extraction speed 15.1 X
Track quality 100.0 %
Test CRC 776E4632
Copy CRC 776E4632
Track not present in AccurateRip database
Copy OK

Track 16

Filename C:\rips\Vampire Weekend – Father of the Bride (2019) [FLAC] {19075930132}\16 – Stranger.wav

Peak level 100.0 %
Extraction speed 15.5 X
Track quality 100.0 %
Test CRC 57D5BD93
Copy CRC 57D5BD93
Track not present in AccurateRip database
Copy OK

Track 17

Filename C:\rips\Vampire Weekend – Father of the Bride (2019) [FLAC] {19075930132}\17 – Spring Snow.wav

Peak level 100.0 %
Extraction speed 15.5 X
Track quality 100.0 %
Test CRC 6110A0A9
Copy CRC 6110A0A9
Track not present in AccurateRip database
Copy OK

Track 18

Filename C:\rips\Vampire Weekend – Father of the Bride (2019) [FLAC] {19075930132}\18 – Jerusalem, New York, Berlin.wav

Peak level 100.0 %
Extraction speed 16.1 X
Track quality 100.0 %
Test CRC 0924CFC0
Copy CRC 0924CFC0
Track not present in AccurateRip database
Copy OK

None of the tracks are present in the AccurateRip database

No errors occurred

End of status report

—- CUETools DB Plugin V2.1.6

[CTDB TOCID: pi08QWoqDANgIeeYvA.eJiYQTi8-] disk not present in database
Submit result: pi08QWoqDANgIeeYvA.eJiYQTi8- has been uploaded

==== Log checksum A3DFF47DA10E709B08EE940939F7EB7C7691C62B1A63808137257F4A136A438A ====

REM GENRE Indie
REM DATE 2019
REM DISCID 0B0D9912
REM COMMENT “ExactAudioCopy v1.3”
PERFORMER “Vampire Weekend”
TITLE “Father of the Bride”
REM COMPOSER “”
FILE “01 – Hold You Now (feat. Danielle Haim).wav” WAVE
TRACK 01 AUDIO
TITLE “Hold You Now (feat. Danielle Haim)”
PERFORMER “Vampire Weekend”
REM COMPOSER “”
ISRC USSM11900139
INDEX 01 00:00:00
FILE “02 – Harmony Hall.wav” WAVE
TRACK 02 AUDIO
TITLE “Harmony Hall”
PERFORMER “Vampire Weekend”
REM COMPOSER “”
ISRC USSM11900111
INDEX 01 00:00:00
FILE “03 – Bambina.wav” WAVE
TRACK 03 AUDIO
TITLE “Bambina”
PERFORMER “Vampire Weekend”
REM COMPOSER “”
ISRC USSM11900140
INDEX 01 00:00:00
FILE “04 – This Life.wav” WAVE
TRACK 04 AUDIO
TITLE “This Life”
PERFORMER “Vampire Weekend”
REM COMPOSER “”
ISRC USSM11900141
INDEX 01 00:00:00
FILE “05 – Big Blue.wav” WAVE
TRACK 05 AUDIO
TITLE “Big Blue”
PERFORMER “Vampire Weekend”
REM COMPOSER “”
ISRC USSM11900142
INDEX 01 00:00:00
FILE “06 – How Long.wav” WAVE
TRACK 06 AUDIO
TITLE “How Long?”
PERFORMER “Vampire Weekend”
REM COMPOSER “”
ISRC USSM11900143
INDEX 01 00:00:00
FILE “07 – Unbearably White.wav” WAVE
TRACK 07 AUDIO
TITLE “Unbearably White”
PERFORMER “Vampire Weekend”
REM COMPOSER “”
ISRC USSM11900144
INDEX 01 00:00:00
FILE “08 – Rich Man.wav” WAVE
TRACK 08 AUDIO
TITLE “Rich Man”
PERFORMER “Vampire Weekend”
REM COMPOSER “”
ISRC USSM11900145
INDEX 01 00:00:00
FILE “09 – Married in a Gold Rush (feat. Danielle Haim).wav” WAVE
TRACK 09 AUDIO
TITLE “Married in a Gold Rush (feat. Danielle Haim)”
PERFORMER “Vampire Weekend”
REM COMPOSER “”
ISRC USSM11900146
INDEX 01 00:00:00
FILE “10 – My Mistake.wav” WAVE
TRACK 10 AUDIO
TITLE “My Mistake”
PERFORMER “Vampire Weekend”
REM COMPOSER “”
ISRC USSM11900147
INDEX 01 00:00:00
FILE “11 – Sympathy.wav” WAVE
TRACK 11 AUDIO
TITLE “Sympathy”
PERFORMER “Vampire Weekend”
REM COMPOSER “”
ISRC USSM11900148
INDEX 01 00:00:00
FILE “12 – Sunflower (feat. Steve Lacy).wav” WAVE
TRACK 12 AUDIO
TITLE “Sunflower (feat. Steve Lacy)”
PERFORMER “Vampire Weekend”
REM COMPOSER “”
ISRC USSM11900149
INDEX 01 00:00:00
FILE “13 – Flower Moon (feat. Steve Lacy).wav” WAVE
TRACK 13 AUDIO
TITLE “Flower Moon (feat. Steve Lacy)”
PERFORMER “Vampire Weekend”
REM COMPOSER “”
ISRC USSM11900150
INDEX 01 00:00:00
FILE “14 – 2021.wav” WAVE
TRACK 14 AUDIO
TITLE “2021”
PERFORMER “Vampire Weekend”
REM COMPOSER “”
ISRC USSM11900112
INDEX 01 00:00:00
FILE “15 – We Belong Together (feat. Danielle Haim).wav” WAVE
TRACK 15 AUDIO
TITLE “We Belong Together (feat. Danielle Haim)”
PERFORMER “Vampire Weekend”
REM COMPOSER “”
ISRC USSM11900152
INDEX 01 00:00:00
FILE “16 – Stranger.wav” WAVE
TRACK 16 AUDIO
TITLE “Stranger”
PERFORMER “Vampire Weekend”
REM COMPOSER “”
ISRC USSM11900153
INDEX 01 00:00:00
FILE “17 – Spring Snow.wav” WAVE
TRACK 17 AUDIO
TITLE “Spring Snow”
PERFORMER “Vampire Weekend”
REM COMPOSER “”
ISRC USSM11900154
INDEX 01 00:00:00
FILE “18 – Jerusalem, New York, Berlin.wav” WAVE
TRACK 18 AUDIO
TITLE “Jerusalem, New York, Berlin”
PERFORMER “Vampire Weekend”
REM COMPOSER “”
ISRC USSM11900155
INDEX 01 00:00:00


Leave a Reply

Your email address will not be published. Required fields are marked *

This site uses Akismet to reduce spam. Learn how your comment data is processed.