Vampire Weekend – Father of the Bride




Artist: Vampire Weekend
Year: 2019
Genre: Rock
Notes: Discogs
Add. Notes:
Cover incl.: Yes
Encoder: FLAC
Bitrate: ~3000 kBit/s (96 kHz/24 Bit/s)
Log & Cue incl.: Yes
Size: 1219,21 MB
Password: “slam” (without ” “)


All Downloads/Hosters are compatible

Download 1
Turbobit.net
Rapidgator.net
UploadEver.com
JustUpload.io
UsersDrive.com
Download 2
Turbobit.net
Rapidgator.net
UploadEver.com
JustUpload.io
UsersDrive.com
Download 3
Turbobit.net
Rapidgator.net
UploadEver.com
JustUpload.io
UsersDrive.com

Tracklist:

1 - Hold You Now - 2:33
2 - Harmony Hall - 5:08
3 - Bambina - 1:42
4 - This Life - 4:28
5 - Big Blue - 1:48
6 - How Long? - 3:32
7 - Unbearably White - 4:40
8 - Rich Man - 2:29
9 - Married In A Gold Rush - 3:42
10 - My Mistake - 3:18
11 - Sympathy - 3:46
12 - Sunflower - 2:17
13 - Flower Moon - 3:57
14 - 2021 - 1:38
15 - We Belong Together - 3:10
16 - Stranger - 4:08
17 - Spring Snow - 2:41
18 - Jerusalem, New York, Berlin - 2:54

EAC-Log, CUE-Sheed & NFO:

Click to open spoiler
foobar2000 1.4 / Dynamic Range Meter 1.1.1
log date: 2019-05-03 07:22:28

——————————————————————————–
Analyzed: Vampire Weekend / Father of the Bride
——————————————————————————–

DR Peak RMS Duration Track
——————————————————————————–
DR6 0.00 dB -9.47 dB 2:34 01-Hold You Now
DR5 0.00 dB -7.83 dB 5:08 02-Harmony Hall
DR5 0.00 dB -7.32 dB 1:43 03-Bambina
DR7 0.00 dB -8.67 dB 4:29 04-This Life
DR8 0.00 dB -11.96 dB 1:49 05-Big Blue
DR6 0.00 dB -8.28 dB 3:32 06-How Long?
DR6 0.00 dB -8.47 dB 4:40 07-Unbearably White
DR5 -0.08 dB -8.05 dB 2:30 08-Rich Man
DR6 0.00 dB -8.28 dB 3:42 09-Married in a Gold Rush
DR7 -0.13 dB -10.31 dB 3:19 10-My Mistake
DR4 0.00 dB -6.81 dB 3:47 11-Sympathy
DR6 -0.01 dB -8.34 dB 2:18 12-Sunflower
DR5 0.00 dB -8.20 dB 3:57 13-Flower Moon
DR6 0.00 dB -8.65 dB 1:39 14-2021
DR6 0.00 dB -8.22 dB 3:11 15-We Belong Together
DR6 0.00 dB -8.61 dB 4:09 16-Stranger
DR7 0.00 dB -9.20 dB 2:41 17-Spring Snow
DR9 0.00 dB -11.49 dB 2:55 18-Jerusalem, New York, Berlin
——————————————————————————–

Number of tracks: 18
Official DR value: DR6
Samplerate: 96000 Hz
Channels: 2
Bits per sample: 24
Bitrate: 2584 kbps
Codec: FLAC
================================================================================

Leave a Reply

Your email address will not be published. Required fields are marked *

This site uses Akismet to reduce spam. Learn how your comment data is processed.