Uriah Heep – Wonderworld (Reissue)




Artist: Uriah Heep
Year: 1974/1989
Genre: Rock
Notes: Discogs
Add. Notes: Reissue
Cover incl.: Yes
Encoder: FLAC
Bitrate: ~800 kBit/s (44.1 kHz/16 Bit/s)
Log & Cue incl.: Yes
Size: 319,27 MB
Password: “slam” (without ” “)


All Downloads/Hosters are compatible

Download 1
Turbobit.net
KatFile.com
Rapidgator.net
Download 2
Turbobit.net
KatFile.com
Rapidgator.net

Tracklist:

1 - Wonderworld - 4:29
2 - Suicidal Man - 3:38
3 - The Shadows And The Wind - 4:27
4 - So Tired - 3:39
5 - The Easy Road - 2:43
6 - Something Or Nothing - 2:56
7 - I Won't Mind - 5:59
8 - We Got We - 3:39
9 - Dreams - 6:10

EAC-Log, CUE-Sheed & NFO:

Click to open spoiler
Exact Audio Copy V1.0 beta 2 from 29. April 2011

EAC extraction logfile from 22. June 2011, 16:39

Uriah Heep / Wonderworld

Used drive : Optiarc DVD RW AD-7240S Adapter: 1 ID: 0

Read mode : Secure
Utilize accurate stream : Yes
Defeat audio cache : Yes
Make use of C2 pointers : No

Read offset correction : 48
Overread into Lead-In and Lead-Out : No
Fill up missing offset samples with silence : Yes
Delete leading and trailing silent blocks : No
Null samples used in CRC calculations : Yes
Used interface : Native Win32 interface for Win NT & 2000

Used output format : User Defined Encoder
Selected bitrate : 1024 kBit/s
Quality : High
Add ID3 tag : Yes
Command line compressor : C:\Program Files\Exact Audio Copy\Flac\flac.exe
Additional command line options : -6 -V -T “ARTIST=%artist%” -T “TITLE=%title%” -T “ALBUM=%albumtitle%” -T “DATE=%year%” -T “TRACKNUMBER=%tracknr%” -T “GENRE=%genre%” -T “COMMENT=%comment%” %source% -o %dest%

TOC of the extracted CD

Track | Start | Length | Start sector | End sector
———————————————————
1 | 0:00.00 | 4:33.47 | 0 | 20521
2 | 4:33.47 | 3:41.28 | 20522 | 37124
3 | 8:15.00 | 4:33.12 | 37125 | 57611
4 | 12:48.12 | 3:41.73 | 57612 | 74259
5 | 16:30.10 | 2:46.27 | 74260 | 86736
6 | 19:16.37 | 2:59.00 | 86737 | 100161
7 | 22:15.37 | 6:03.65 | 100162 | 127451
8 | 28:19.27 | 3:41.58 | 127452 | 144084
9 | 32:01.10 | 6:10.67 | 144085 | 171901

Range status and errors

Selected range

Filename E:\music\Uriah Heep\1974. Wonderworld\1974. Wonderworld (Legacy LLMCD-3017, Sweeden)\Uriah Heep – Wonderworld.wav

Peak level 100.0 %
Extraction speed 3.5 X
Range quality 100.0 %
Test CRC 66B227B7
Copy CRC 66B227B7
Copy OK

No errors occurred

AccurateRip summary

Track 1 not present in database
Track 2 not present in database
Track 3 not present in database
Track 4 not present in database
Track 5 not present in database
Track 6 not present in database
Track 7 not present in database
Track 8 not present in database
Track 9 not present in database

None of the tracks are present in the AccurateRip database

End of status report

==== Log checksum B35798FF374F451C28909223C02EEDB318105CEDF23A1F7156ECD2C0D06CD3CF ====

REM GENRE Rock
REM DATE 1974
REM DISCID 7B08F409
REM COMMENT “ExactAudioCopy v1.0b2”
PERFORMER “Uriah Heep”
TITLE “Wonderworld”
FILE “Uriah Heep – Wonderworld.flac” WAVE
TRACK 01 AUDIO
TITLE “Wonderworld”
PERFORMER “Uriah Heep”
INDEX 01 00:00:00
TRACK 02 AUDIO
TITLE “Suicidal Man”
PERFORMER “Uriah Heep”
INDEX 00 04:31:47
INDEX 01 04:33:47
TRACK 03 AUDIO
TITLE “The Shadows and the Wind”
PERFORMER “Uriah Heep”
INDEX 00 08:13:00
INDEX 01 08:15:00
TRACK 04 AUDIO
TITLE “So Tired”
PERFORMER “Uriah Heep”
INDEX 00 12:46:25
INDEX 01 12:48:12
TRACK 05 AUDIO
TITLE “The Easy Road”
PERFORMER “Uriah Heep”
INDEX 00 16:27:45
INDEX 01 16:30:10
TRACK 06 AUDIO
TITLE “Something or Nothing”
PERFORMER “Uriah Heep”
INDEX 00 19:13:55
INDEX 01 19:16:37
TRACK 07 AUDIO
TITLE “I Won’t Mind”
PERFORMER “Uriah Heep”
INDEX 00 22:13:10
INDEX 01 22:15:37
TRACK 08 AUDIO
TITLE “We Got We”
PERFORMER “Uriah Heep”
INDEX 00 28:16:12
INDEX 01 28:19:27
TRACK 09 AUDIO
TITLE “Dreams”
PERFORMER “Uriah Heep”
INDEX 00 31:57:32
INDEX 01 32:01:10


Leave a Reply

Your email address will not be published. Required fields are marked *

This site uses Akismet to reduce spam. Learn how your comment data is processed.