Uriah Heep – …Very ‘Eavy …Very ‘Umble (Remastered)




[Total: 0    Average: 0/5]

Artist: Uriah Heep
Year: 1970/1996
Genre: Rock
Notes: Discogs
Add. Notes: Remastered
Cover incl.: r
Encoder: FLAC
Bitrate: ~800 kBit/s (44.1 kHz/16 Bit/s)
Log & Cue incl.: Yes
Size: 600,87 MB
Password: “slam” (without ” “)


All Downloads/Hosters are compatible

Download 1
Share-online.biz
KatFile.com
Rapidgator.net
Download 2
Share-online.biz
KatFile.com
Rapidgator.net

Tracklist:

1. Gypsy 
2. Walking In Your Shadow 
3. Come Away Melinda 
4. Lucy Blues 
5. Dreammare 
6. Real Turned On 
7. I'll Keep On Trying 
8. Wake Up (Set Your Sights) 
Bonus Tracks
9. Gypsy (Single Version) 
10. Come Away Melinda (Previously Unreleased) 
11. Born In A Trunk (Previously Unreleased)

EAC-Log, CUE-Sheed & NFO:

Click to open spoiler
Exact Audio Copy V0.99 prebeta 5 from 4. May 2009

Отчёт EAC об извлечении, выполненном 17. апреля 2011, 20:27

Uriah Heep / Very ‘eavy Very ‘umble

Дисковод: Optiarc DVD RW AD-7240S Adapter: 1 ID: 0

Режим чтения : Достоверность
Использование точного потока : Да
Отключение кэша аудио : Да
Использование указателей C2 : Нет

Коррекция смещения при чтении : 48
Способность читать области Lead-in и Lead-out : Нет
Заполнение пропущенных сэмплов тишиной : Да
Удаление блоков с тишиной в начале и конце : Нет
При вычислениях CRC использовались нулевые сэмплы : Да
Интерфейс : Встроенный Win32-интерфейс для Win NT/2000

Выходной формат : Пользовательский кодировщик
Выбранный битрейт : 768 kBit/s
Качество : Высокий
Добавление ID3-тэга : Нет
Утилита сжатия : C:\Program Files\Exact Audio Copy\FLAC\FLAC.EXE
Дополнительные параметры : -6 -V -T “ARTIST=%a” -T “TITLE=%t” -T “ALBUM=%g” -T “DATE=%y” -T “TRACKNUMBER=%n” -T “GENRE=%m” -T “COMMENT=%e” %s -o %d

TOC извлечённого CD

Трек | Старт | Длительность | Начальный сектор | Конечный сектор
———————————————————————
1 | 0:00.00 | 6:37.15 | 0 | 29789
2 | 6:37.15 | 4:30.15 | 29790 | 50054
3 | 11:07.30 | 3:49.20 | 50055 | 67249
4 | 14:56.50 | 5:10.02 | 67250 | 90501
5 | 20:06.52 | 4:40.13 | 90502 | 111514
6 | 24:46.65 | 3:39.10 | 111515 | 127949
7 | 28:26.00 | 5:27.27 | 127950 | 152501
8 | 33:53.27 | 6:28.18 | 152502 | 181619
9 | 40:21.45 | 2:57.45 | 181620 | 194939
10 | 43:19.15 | 3:42.60 | 194940 | 211649
11 | 47:02.00 | 3:45.05 | 211650 | 228529

Характеристики диапазона извлечения и сообщения об ошибках

Выбранный диапазон

Имя файла E:\music\Uriah Heep\1970. …Very ‘eavy …Very ‘umble\1970. …very ‘eavy …very ‘umble (Castle ESMCD 316, England)\Uriah Heep – Very ‘eavy Very ‘umble.wav

Пиковый уровень 100.0 %
Качество диапазона 100.0 %
CRC теста EFF1B3B3
CRC копии EFF1B3B3
Копирование… OK

Ошибок не произошло

AccurateRip: сводка

Трек 1 точное извлечение (доверие 27) [D4BE634D]
Трек 2 точное извлечение (доверие 27) [0C4AAF86]
Трек 3 точное извлечение (доверие 27) [E0CA361F]
Трек 4 точное извлечение (доверие 27) [93F32A72]
Трек 5 точное извлечение (доверие 27) [A004EA01]
Трек 6 точное извлечение (доверие 27) [DAF023BF]
Трек 7 точное извлечение (доверие 27) [D2CA4CEA]
Трек 8 точное извлечение (доверие 27) [323B5AD5]
Трек 9 точное извлечение (доверие 28) [8B748F52]
Трек 10 точное извлечение (доверие 27) [4673CA75]
Трек 11 точное извлечение (доверие 27) [892A47A7]

Все треки извлечены точно

Конец отчёта

REM GENRE “Hard Rock”
REM DATE 1970
REM DISCID A30BE70B
REM COMMENT “ExactAudioCopy v0.99pb5”
PERFORMER “Uriah Heep”
TITLE “Very ‘eavy Very ‘umble”
FILE “Uriah Heep – Very ‘eavy Very ‘umble.flac” WAVE
TRACK 01 AUDIO
TITLE “Gypsy”
PERFORMER “Uriah Heep”
INDEX 01 00:00:00
TRACK 02 AUDIO
TITLE “Walking In Your Shadow”
PERFORMER “Uriah Heep”
INDEX 01 06:37:15
TRACK 03 AUDIO
TITLE “Come Away Melinda”
PERFORMER “Uriah Heep”
INDEX 01 11:07:30
TRACK 04 AUDIO
TITLE “Lucy Blues”
PERFORMER “Uriah Heep”
INDEX 00 14:54:42
INDEX 01 14:56:50
TRACK 05 AUDIO
TITLE “Dreammare”
PERFORMER “Uriah Heep”
INDEX 00 20:03:70
INDEX 01 20:06:52
TRACK 06 AUDIO
TITLE “Real Turned On”
PERFORMER “Uriah Heep”
INDEX 00 24:45:15
INDEX 01 24:46:65
TRACK 07 AUDIO
TITLE “I’ll Keep On Trying”
PERFORMER “Uriah Heep”
INDEX 00 28:24:07
INDEX 01 28:26:00
TRACK 08 AUDIO
TITLE “Wake Up (Set Your Sights)”
PERFORMER “Uriah Heep”
INDEX 00 33:50:50
INDEX 01 33:53:27
TRACK 09 AUDIO
TITLE “Gypsy (Single Version)”
PERFORMER “Uriah Heep”
INDEX 00 40:14:22
INDEX 01 40:21:45
TRACK 10 AUDIO
TITLE “Come Away Melinda (Previously Unreleased)”
PERFORMER “Uriah Heep”
INDEX 00 43:16:55
INDEX 01 43:19:15
TRACK 11 AUDIO
TITLE “Born In A Trunk (Previously Unreleased)”
PERFORMER “Uriah Heep”
INDEX 00 47:00:47
INDEX 01 47:02:00


Spread the Download

Leave a Reply

Your email address will not be published. Required fields are marked *

Enter the text from the image below
 

This site uses Akismet to reduce spam. Learn how your comment data is processed.