Uriah Heep – …very ‘eavy…very ‘umble (Reissue)




[Total: 0    Average: 0/5]

Artist: Uriah Heep
Year: 1970/2001
Genre: Rock
Notes: Discogs
Add. Notes: Reissue
Cover incl.: Yes
Encoder: FLAC
Bitrate: ~900 kBit/s (44.1 kHz/16 Bit/s)
Log & Cue incl.: Yes
Size: 355 MB
Password: “slam” (without ” “)


All Downloads/Hosters are compatible

Download 1
Share-online.biz
KatFile.com
Rapidgator.net
Mexa.sh
Download 2
Share-online.biz
KatFile.com
Rapidgator.net
Mexa.sh

Tracklist:

1. Gypsy
2. Walking In Your Shadow
3. Come Away Melinda
4. Lucy Blues
5. Dreammare
6. Real Turned On
7. I'll Keep On Trying
8. Wake Up (Set Your Sights)

EAC-Log, CUE-Sheed & NFO:

Click to open spoiler
Exact Audio Copy V0.99 prebeta 5 from 4. May 2009

Отчёт EAC об извлечении, выполненном 15. августа 2010, 19:16

Uriah Heep / …Very ‘eavy …Very ‘umble

Дисковод: MATSHITADVD-RAM UJ-850S Adapter: 1 ID: 0

Режим чтения : Достоверность
Использование точного потока : Да
Отключение кэша аудио : Да
Использование указателей C2 : Нет

Коррекция смещения при чтении : 102
Способность читать области Lead-in и Lead-out : Нет
Заполнение пропущенных сэмплов тишиной : Да
Удаление блоков с тишиной в начале и конце : Нет
При вычислениях CRC использовались нулевые сэмплы : Да
Интерфейс : Встроенный Win32-интерфейс для Win NT/2000

Выходной формат : Пользовательский кодировщик
Выбранный битрейт : 768 kBit/s
Качество : Высокий
Добавление ID3-тэга : Нет
Утилита сжатия : C:\Program Files\Exact Audio Copy\Flac\flac.exe
Дополнительные параметры : -6 -V -T “ARTIST=%a” -T “TITLE=%t” -T “ALBUM=%g” -T “DATE=%y” -T “TRACKNUMBER=%n” -T “GENRE=%m” -T “COMMENT=%e” %s -o %d

TOC извлечённого CD

Трек | Старт | Длительность | Начальный сектор | Конечный сектор
———————————————————————
1 | 0:00.00 | 6:38.61 | 0 | 29910
2 | 6:38.61 | 4:30.00 | 29911 | 50160
3 | 11:08.61 | 3:48.66 | 50161 | 67326
4 | 14:57.52 | 5:08.66 | 67327 | 90492
5 | 20:06.43 | 4:37.38 | 90493 | 111305
6 | 24:44.06 | 3:39.54 | 111306 | 127784
7 | 28:23.60 | 5:27.29 | 127785 | 152338
8 | 33:51.14 | 6:20.68 | 152339 | 180906

Характеристики диапазона извлечения и сообщения об ошибках

Выбранный диапазон

Имя файла G:\ALIK\Root\Uriah Heep box set\…very ‘eavy…very’umble\Uriah Heep – …Very ‘eavy …Very ‘umble.wav

Пиковый уровень 97.7 %
Качество диапазона 100.0 %
CRC теста DA0D2978
CRC копии DA0D2978
Копирование… OK

Ошибок не произошло

AccurateRip: сводка

Трек 1 точное извлечение (доверие 6) [1D3FE83D]
Трек 2 точное извлечение (доверие 6) [4D1B3AD1]
Трек 3 точное извлечение (доверие 6) [B2AF361E]
Трек 4 точное извлечение (доверие 6) [10AD96D8]
Трек 5 точное извлечение (доверие 6) [A233641F]
Трек 6 точное извлечение (доверие 6) [CB6462AF]
Трек 7 точное извлечение (доверие 6) [62D3FDF2]
Трек 8 точное извлечение (доверие 6) [818B6133]

Все треки извлечены точно

Конец отчёта

REM GENRE Rock
REM DATE 1970
REM DISCID 60096C08
REM COMMENT “ExactAudioCopy v0.99pb5”
PERFORMER “Uriah Heep”
TITLE “…Very ‘eavy …Very ‘umble”
FILE “Uriah Heep – …Very ‘eavy …Very ‘umble.flac” WAVE
TRACK 01 AUDIO
TITLE “Gypsy”
PERFORMER “Uriah Heep”
INDEX 01 00:00:00
TRACK 02 AUDIO
TITLE “Walking In Your Shadow”
PERFORMER “Uriah Heep”
INDEX 00 06:37:08
INDEX 01 06:38:61
TRACK 03 AUDIO
TITLE “Come Away Melinda”
PERFORMER “Uriah Heep”
INDEX 00 11:07:26
INDEX 01 11:08:61
TRACK 04 AUDIO
TITLE “Lucy Blues”
PERFORMER “Uriah Heep”
INDEX 00 14:55:73
INDEX 01 14:57:52
TRACK 05 AUDIO
TITLE “Dreammare”
PERFORMER “Uriah Heep”
INDEX 00 20:04:64
INDEX 01 20:06:43
TRACK 06 AUDIO
TITLE “Real Turned On”
PERFORMER “Uriah Heep”
INDEX 00 24:42:60
INDEX 01 24:44:06
TRACK 07 AUDIO
TITLE “I’ll Keep On Trying”
PERFORMER “Uriah Heep”
INDEX 00 28:21:26
INDEX 01 28:23:60
TRACK 08 AUDIO
TITLE “Wake Up (Set Your Sights)”
PERFORMER “Uriah Heep”
INDEX 00 33:48:33
INDEX 01 33:51:14


Spread the Download

Leave a Reply

Your email address will not be published. Required fields are marked *

Enter the text from the image below
 

This site uses Akismet to reduce spam. Learn how your comment data is processed.