Uriah Heep – Uriah Heep




Artist: Uriah Heep
Year: 1970/1990
Genre: Rock
Notes: Discogs
Add. Notes:
Cover incl.: Yes
Encoder: FLAC
Bitrate: ~800 kBit/s (44.1 kHz/16 Bit/s)
Log & Cue incl.: Yes
Size: 339,97 MB
Password: “slam” (without ” “)


All Downloads/Hosters are compatible

Download 1
Turbobit.net
NitroFlare.com
KatFile.com
Rapidgator.net
Download 2
Turbobit.net
NitroFlare.com
KatFile.com
Rapidgator.net

Tracklist:

1 - Gypsy - 6:37
2 - Walking In Your Shadow - 4:31
3 - Come Away Melinda - 3:46
4 - Bird Of Prey - 4:05
5 - Dreammare - 4:39
6 - Real Turned On - 3:37
7 - I'll Keep On Trying - 5:24
8 - Wake Up (Set Your Sights) - 6:22

EAC-Log, CUE-Sheed & NFO:

Click to open spoiler
Exact Audio Copy V1.0 beta 2 from 29. April 2011

EAC extraction logfile from 26. February 2012, 12:54

Uriah Heep / Uriah Heep

Used drive : Optiarc DVD RW AD-7240S Adapter: 1 ID: 0

Read mode : Secure
Utilize accurate stream : Yes
Defeat audio cache : Yes
Make use of C2 pointers : No

Read offset correction : 48
Overread into Lead-In and Lead-Out : No
Fill up missing offset samples with silence : Yes
Delete leading and trailing silent blocks : No
Null samples used in CRC calculations : Yes
Used interface : Native Win32 interface for Win NT & 2000

Used output format : User Defined Encoder
Selected bitrate : 1024 kBit/s
Quality : High
Add ID3 tag : Yes
Command line compressor : C:\Program Files\Exact Audio Copy\Flac\flac.exe
Additional command line options : -6 -V -T “ARTIST=%artist%” -T “TITLE=%title%” -T “ALBUM=%albumtitle%” -T “DATE=%year%” -T “TRACKNUMBER=%tracknr%” -T “GENRE=%genre%” -T “COMMENT=%comment%” %source% -o %dest%

TOC of the extracted CD

Track | Start | Length | Start sector | End sector
———————————————————
1 | 0:00.32 | 6:39.63 | 32 | 30019
2 | 6:40.20 | 4:33.22 | 30020 | 50516
3 | 11:13.42 | 3:50.35 | 50517 | 67801
4 | 15:04.02 | 4:08.35 | 67802 | 86436
5 | 19:12.37 | 4:41.68 | 86437 | 107579
6 | 23:54.30 | 3:41.00 | 107580 | 124154
7 | 27:35.30 | 5:28.12 | 124155 | 148766
8 | 33:03.42 | 6:22.50 | 148767 | 177466

Range status and errors

Selected range

Filename E:\music\Uriah Heep\Studio\1970. …very ‘eavy …very ‘umble\1970. Uriah Heep ( Mercury,834 769, USA)\Uriah Heep – Uriah Heep.wav

Peak level 100.0 %
Extraction speed 3.6 X
Range quality 100.0 %
Test CRC B0D8FD97
Copy CRC B0D8FD97
Copy OK

No errors occurred

AccurateRip summary

Track 1 accurately ripped (confidence 9) [A747DF58] (AR v1)
Track 2 accurately ripped (confidence 9) [C03F935E] (AR v1)
Track 3 accurately ripped (confidence 9) [17CEE973] (AR v1)
Track 4 accurately ripped (confidence 9) [FEB06AA5] (AR v1)
Track 5 accurately ripped (confidence 9) [EF964A82] (AR v1)
Track 6 accurately ripped (confidence 9) [F55B51ED] (AR v1)
Track 7 accurately ripped (confidence 9) [1E181405] (AR v1)
Track 8 accurately ripped (confidence 9) [6580B9BF] (AR v1)

All tracks accurately ripped

End of status report

==== Log checksum DE8CD904A918ABF161BEBFD7F9A6ADA7AAB2E6CB41D6073729891FAF4CECEAD3 ====

REM GENRE Rock
REM DATE 1970
REM DISCID 6C093E08
REM COMMENT “ExactAudioCopy v1.0b2”
PERFORMER “Uriah Heep”
TITLE “Uriah Heep”
FILE “Uriah Heep – Uriah Heep.flac” WAVE
TRACK 01 AUDIO
TITLE “Gypsy”
PERFORMER “Uriah Heep”
INDEX 00 00:00:00
INDEX 01 00:00:32
TRACK 02 AUDIO
TITLE “Walking In Your Shadow”
PERFORMER “Uriah Heep”
INDEX 00 06:38:05
INDEX 01 06:40:20
TRACK 03 AUDIO
TITLE “Come Away Melinda”
PERFORMER “Uriah Heep”
INDEX 00 11:10:60
INDEX 01 11:13:42
TRACK 04 AUDIO
TITLE “Bird Of Prey”
PERFORMER “Uriah Heep”
INDEX 00 15:01:55
INDEX 01 15:04:02
TRACK 05 AUDIO
TITLE “Dreammare”
PERFORMER “Uriah Heep”
INDEX 00 19:09:55
INDEX 01 19:12:37
TRACK 06 AUDIO
TITLE “Real Turned On”
PERFORMER “Uriah Heep”
INDEX 00 23:52:05
INDEX 01 23:54:30
TRACK 07 AUDIO
TITLE “I’ll Keep On Trying”
PERFORMER “Uriah Heep”
INDEX 00 27:33:05
INDEX 01 27:35:30
TRACK 08 AUDIO
TITLE “Wake Up (Set Your Sights)”
PERFORMER “Uriah Heep”
INDEX 00 33:01:17
INDEX 01 33:03:42


Leave a Reply

Your email address will not be published. Required fields are marked *

Enter the text from the image below
 

This site uses Akismet to reduce spam. Learn how your comment data is processed.