Uriah Heep – Uriah Heep Live




Artist: Uriah Heep
Year: 1989
Genre: Rock
Notes: Discogs
Add. Notes:
Cover incl.: Yes
Encoder: FLAC
Bitrate: ~900 kBit/s (44.1 kHz/16 Bit/s)
Log & Cue incl.: Yes
Size: 527,59 MB
Password: “slam” (without ” “)


All Downloads/Hosters are compatible

Download 1
NitroFlare.com
KatFile.com
Turbobit.net
Rapidgator.net
UploadRar.com
Download 2
NitroFlare.com
KatFile.com
Turbobit.net
Rapidgator.net
UploadRar.com

Tracklist:

1 - Introduction - 0:50
2 - Sunrise - 4:09
3 - Sweet Lorraine - 5:01
4 - Traveller In Time - 3:37
5 - Easy Livin' - 2:59
6 - July Morning - 11:55
7 - Tears In My Eyes - 5:01
8 - Gypsy - 14:07
9 - Circle Of Hands - 8:58
10 - Look At Yourself - 7:29
11 - The Magician's Birthday Party - 1:45
12 - Love Machine - 3:27

EAC-Log, CUE-Sheed & NFO:

Click to open spoiler
Exact Audio Copy V1.0 beta 2 from 29. April 2011

EAC extraction logfile from 22. June 2011, 15:10

Uriah Heep / Live

Used drive : Optiarc DVD RW AD-7240S Adapter: 1 ID: 0

Read mode : Secure
Utilize accurate stream : Yes
Defeat audio cache : Yes
Make use of C2 pointers : No

Read offset correction : 48
Overread into Lead-In and Lead-Out : No
Fill up missing offset samples with silence : Yes
Delete leading and trailing silent blocks : No
Null samples used in CRC calculations : Yes
Used interface : Native Win32 interface for Win NT & 2000

Used output format : User Defined Encoder
Selected bitrate : 1024 kBit/s
Quality : High
Add ID3 tag : Yes
Command line compressor : C:\Program Files\Exact Audio Copy\Flac\flac.exe
Additional command line options : -6 -V -T “ARTIST=%artist%” -T “TITLE=%title%” -T “ALBUM=%albumtitle%” -T “DATE=%year%” -T “TRACKNUMBER=%tracknr%” -T “GENRE=%genre%” -T “COMMENT=%comment%” %source% -o %dest%

TOC of the extracted CD

Track | Start | Length | Start sector | End sector
———————————————————
1 | 0:00.32 | 0:50.68 | 32 | 3849
2 | 0:51.25 | 4:09.07 | 3850 | 22531
3 | 5:00.32 | 5:00.43 | 22532 | 45074
4 | 10:01.00 | 3:37.15 | 45075 | 61364
5 | 13:38.15 | 3:00.27 | 61365 | 74891
6 | 16:38.42 | 11:55.18 | 74892 | 128534
7 | 28:33.60 | 5:02.35 | 128535 | 151219
8 | 33:36.20 | 14:06.32 | 151220 | 214701
9 | 47:42.52 | 8:59.30 | 214702 | 255156
10 | 56:42.07 | 7:28.38 | 255157 | 288794
11 | 64:10.45 | 1:45.17 | 288795 | 296686
12 | 65:55.62 | 3:27.33 | 296687 | 312244

Range status and errors

Selected range

Filename E:\music\Uriah Heep\1973. Live\1973. Live (Mercury 822 790-2, USA)\Uriah Heep – Live.wav

Peak level 100.0 %
Extraction speed 4.4 X
Range quality 99.9 %
Test CRC D24B7EA6
Copy CRC D24B7EA6
Copy OK

No errors occurred

AccurateRip summary

Track 1 accurately ripped (confidence 10) [930D7A1C] (AR v1)
Track 2 accurately ripped (confidence 10) [43A4252B] (AR v1)
Track 3 accurately ripped (confidence 10) [76C2CB87] (AR v1)
Track 4 accurately ripped (confidence 10) [A1B0969E] (AR v1)
Track 5 accurately ripped (confidence 10) [91477D7B] (AR v1)
Track 6 accurately ripped (confidence 10) [01EE6017] (AR v1)
Track 7 accurately ripped (confidence 10) [70F16DC7] (AR v1)
Track 8 accurately ripped (confidence 7) [E1606CAB] (AR v1)
Track 9 accurately ripped (confidence 9) [2537A61F] (AR v1)
Track 10 accurately ripped (confidence 9) [A4FCBE52] (AR v1)
Track 11 accurately ripped (confidence 10) [78062551] (AR v1)
Track 12 accurately ripped (confidence 10) [F4F081FF] (AR v1)

All tracks accurately ripped

End of status report

==== Log checksum B3BE461039387DCD98A1583CCA02BAACA74B2A17C6F2CE5744039181C03ECB07 ====

REM GENRE “Hard Rock”
REM DATE 1973
REM DISCID 8510430C
REM COMMENT “ExactAudioCopy v1.0b2”
PERFORMER “Uriah Heep”
TITLE “Live”
FILE “Uriah Heep – Live.flac” WAVE
TRACK 01 AUDIO
TITLE “Introduction”
PERFORMER “Uriah Heep”
INDEX 00 00:00:00
INDEX 01 00:00:32
TRACK 02 AUDIO
TITLE “Sunrise”
PERFORMER “Uriah Heep”
INDEX 01 00:51:25
TRACK 03 AUDIO
TITLE “Sweet Lorraine”
PERFORMER “Uriah Heep”
INDEX 01 05:00:32
TRACK 04 AUDIO
TITLE “Traveller in Time”
PERFORMER “Uriah Heep”
INDEX 01 10:01:00
TRACK 05 AUDIO
TITLE “Easy Livin'”
PERFORMER “Uriah Heep”
INDEX 01 13:38:15
TRACK 06 AUDIO
TITLE “July Morning”
PERFORMER “Uriah Heep”
INDEX 00 16:37:32
INDEX 01 16:38:42
TRACK 07 AUDIO
TITLE “Tears in My Eyes”
PERFORMER “Uriah Heep”
INDEX 01 28:33:60
TRACK 08 AUDIO
TITLE “Gypsy”
PERFORMER “Uriah Heep”
INDEX 00 33:34:20
INDEX 01 33:36:20
TRACK 09 AUDIO
TITLE “Circle of Hands”
PERFORMER “Uriah Heep”
INDEX 01 47:42:52
TRACK 10 AUDIO
TITLE “Look at Yourself”
PERFORMER “Uriah Heep”
INDEX 00 56:40:57
INDEX 01 56:42:07
TRACK 11 AUDIO
TITLE “The Magician’s Birthday Party”
PERFORMER “Uriah Heep”
INDEX 01 64:10:45
TRACK 12 AUDIO
TITLE “Love Machine”
PERFORMER “Uriah Heep”
INDEX 01 65:55:62


Leave a Reply

Your email address will not be published. Required fields are marked *

This site uses Akismet to reduce spam. Learn how your comment data is processed.