Uriah Heep – Uriah Heep Live (UK Edition)




Artist: Uriah Heep
Year: 2001
Genre: Rock
Notes: Discogs
Add. Notes: UK Edition
Cover incl.: Yes
Encoder: FLAC
Bitrate: ~900 kBit/s (44.1 kHz/16 Bit/s)
Log & Cue incl.: Yes
Size: 737 MB
Password: “slam” (without ” “)


All Downloads/Hosters are compatible

Download 1
KatFile.com
Rapidgator.net
Turbobit.net
FileFactory.com
Download 2
KatFile.com
Rapidgator.net
Turbobit.net
FileFactory.com

Tracklist:

Disc 1:
A1 - Introduction
A2 - Sunrise - 3:58
A3 - Sweet Lorraine - 4:27
A4 - Traveller In Time - 3:17
A5 - Easy Livin' - 2:48
B1 - July Morning - 11:26
B2 - Tears In My Eyes - 4:37
C1 - Gypsy - 13:38
C2 - Circle Of Hands - 8:50

Disc 2:
D1 - Look At Yourself - 5:59
D2 - Magician's Birthday - 1:15
D3 - Love Machine - 3:07
Rock 'N Roll Medley - 8:17
D4a - Roll Over Beethoven
D4b - Blue Suede Shoes 
D4c - Mean Woman Blues 
D4d - Hound Dog 
D4e - At The Hop
D4f - Whole Lotta Shakin' Going On
D4g - Blue Suede Shoes

EAC-Log, CUE-Sheed & NFO:

Click to open spoiler
Exact Audio Copy V0.99 prebeta 5 from 4. May 2009

Отчёт EAC об извлечении, выполненном 16. августа 2010, 12:32

Uriah Heep / Live (Disc 1)

Дисковод: MATSHITADVD-RAM UJ-850S Adapter: 1 ID: 0

Режим чтения : Достоверность
Использование точного потока : Да
Отключение кэша аудио : Да
Использование указателей C2 : Нет

Коррекция смещения при чтении : 102
Способность читать области Lead-in и Lead-out : Нет
Заполнение пропущенных сэмплов тишиной : Да
Удаление блоков с тишиной в начале и конце : Нет
При вычислениях CRC использовались нулевые сэмплы : Да
Интерфейс : Встроенный Win32-интерфейс для Win NT/2000

Выходной формат : Пользовательский кодировщик
Выбранный битрейт : 768 kBit/s
Качество : Высокий
Добавление ID3-тэга : Нет
Утилита сжатия : C:\Program Files\Exact Audio Copy\Flac\flac.exe
Дополнительные параметры : -6 -V -T “ARTIST=%a” -T “TITLE=%t” -T “ALBUM=%g” -T “DATE=%y” -T “TRACKNUMBER=%n” -T “GENRE=%m” -T “COMMENT=%e” %s -o %d

TOC извлечённого CD

Трек | Старт | Длительность | Начальный сектор | Конечный сектор
———————————————————————
1 | 0:00.00 | 0:50.30 | 0 | 3779
2 | 0:50.30 | 4:17.30 | 3780 | 23084
3 | 5:07.60 | 5:01.06 | 23085 | 45665
4 | 10:08.66 | 3:24.10 | 45666 | 60975
5 | 13:33.01 | 2:57.47 | 60976 | 74297
6 | 16:30.48 | 11:47.48 | 74298 | 127370
7 | 28:18.21 | 4:57.50 | 127371 | 149695

Характеристики диапазона извлечения и сообщения об ошибках

Выбранный диапазон

Имя файла G:\ALIK\Root\Uriah Heep box set\Live\Disc1\Uriah Heep – Live (Disc 1).wav

Пиковый уровень 100.0 %
Качество диапазона 100.0 %
CRC теста 76C3737E
CRC копии 76C3737E
Копирование… OK

Ошибок не произошло

AccurateRip: сводка

Трек 1 точное извлечение (доверие 8) [634BCDC7]
Трек 2 точное извлечение (доверие 8) [58940469]
Трек 3 точное извлечение (доверие 8) [2E7C4B7E]
Трек 4 точное извлечение (доверие 8) [06D13CD4]
Трек 5 точное извлечение (доверие 8) [938C6520]
Трек 6 точное извлечение (доверие 8) [B79DD11D]
Трек 7 точное извлечение (доверие 8) [897BD2CD]

Все треки извлечены точно

Конец отчёта

Exact Audio Copy V0.99 prebeta 5 from 4. May 2009

Отчёт EAC об извлечении, выполненном 16. августа 2010, 14:44

Uriah Heep / Live (Disc 2)

Дисковод: MATSHITADVD-RAM UJ-850S Adapter: 1 ID: 0

Режим чтения : Достоверность
Использование точного потока : Да
Отключение кэша аудио : Да
Использование указателей C2 : Нет

Коррекция смещения при чтении : 102
Способность читать области Lead-in и Lead-out : Нет
Заполнение пропущенных сэмплов тишиной : Да
Удаление блоков с тишиной в начале и конце : Нет
При вычислениях CRC использовались нулевые сэмплы : Да
Интерфейс : Встроенный Win32-интерфейс для Win NT/2000

Выходной формат : Пользовательский кодировщик
Выбранный битрейт : 768 kBit/s
Качество : Высокий
Добавление ID3-тэга : Нет
Утилита сжатия : C:\Program Files\Exact Audio Copy\Flac\flac.exe
Дополнительные параметры : -6 -V -T “ARTIST=%a” -T “TITLE=%t” -T “ALBUM=%g” -T “DATE=%y” -T “TRACKNUMBER=%n” -T “GENRE=%m” -T “COMMENT=%e” %s -o %d

TOC извлечённого CD

Трек | Старт | Длительность | Начальный сектор | Конечный сектор
———————————————————————
1 | 0:00.00 | 13:58.17 | 0 | 62866
2 | 13:58.17 | 8:55.15 | 62867 | 103006
3 | 22:53.32 | 7:24.17 | 103007 | 136323
4 | 30:17.49 | 1:45.16 | 136324 | 144214
5 | 32:02.65 | 3:26.74 | 144215 | 159738
6 | 35:29.64 | 8:33.27 | 159739 | 198240

Характеристики диапазона извлечения и сообщения об ошибках

Выбранный диапазон

Имя файла G:\ALIK\Root\Uriah Heep box set\Live\Disc2\Uriah Heep – Live (Disc 2).wav

Пиковый уровень 97.7 %
Качество диапазона 100.0 %
CRC теста B7185180
CRC копии B7185180
Копирование… OK

Ошибок не произошло

AccurateRip: сводка

Трек 1 точное извлечение (доверие 8) [F6D725C4]
Трек 2 точное извлечение (доверие 8) [F7F95AF3]
Трек 3 точное извлечение (доверие 8) [A45AB915]
Трек 4 точное извлечение (доверие 8) [469FF3DD]
Трек 5 точное извлечение (доверие 8) [3588E995]
Трек 6 точное извлечение (доверие 8) [9D6E8B77]

Все треки извлечены точно

Конец отчёта

REM GENRE Rock
REM DATE 1973
REM DISCID 4607CB07
REM COMMENT “ExactAudioCopy v0.99pb5”
PERFORMER “Uriah Heep”
TITLE “Live (Disc 1)”
FILE “Uriah Heep – Live (Disc 1).flac” WAVE
TRACK 01 AUDIO
TITLE “Introduction”
PERFORMER “Uriah Heep”
INDEX 01 00:00:00
TRACK 02 AUDIO
TITLE “Sunrise”
PERFORMER “Uriah Heep”
INDEX 01 00:50:30
TRACK 03 AUDIO
TITLE “Sweet Lorraine”
PERFORMER “Uriah Heep”
INDEX 01 05:07:60
TRACK 04 AUDIO
TITLE “Traveller in Time”
PERFORMER “Uriah Heep”
INDEX 01 10:08:66
TRACK 05 AUDIO
TITLE “Easy Livin'”
PERFORMER “Uriah Heep”
INDEX 01 13:33:01
TRACK 06 AUDIO
TITLE “July Morning”
PERFORMER “Uriah Heep”
INDEX 01 16:30:48
TRACK 07 AUDIO
TITLE “Tears In My Eyes”
PERFORMER “Uriah Heep”
INDEX 01 28:18:21

REM GENRE Rock
REM DATE 1973
REM DISCID 480A5306
REM COMMENT “ExactAudioCopy v0.99pb5”
PERFORMER “Uriah Heep”
TITLE “Live (Disc 2)”
FILE “Uriah Heep – Live (Disc 2).flac” WAVE
TRACK 01 AUDIO
TITLE “Gypsy”
PERFORMER “Uriah Heep”
INDEX 01 00:00:00
TRACK 02 AUDIO
TITLE “Circle of Hands”
PERFORMER “Uriah Heep”
INDEX 01 13:58:17
TRACK 03 AUDIO
TITLE “Look at Yourself”
PERFORMER “Uriah Heep”
INDEX 01 22:53:32
TRACK 04 AUDIO
TITLE “Magician’s Birthday”
PERFORMER “Uriah Heep”
INDEX 01 30:17:49
TRACK 05 AUDIO
TITLE “Love Machine”
PERFORMER “Uriah Heep”
INDEX 01 32:02:65
TRACK 06 AUDIO
TITLE “Rock ‘n’ Roll Medley”
PERFORMER “Uriah Heep”
INDEX 01 35:29:64


Leave a Reply

Your email address will not be published. Required fields are marked *

This site uses Akismet to reduce spam. Learn how your comment data is processed.