Uriah Heep – Uriah Heep Live (Remastered Deluxe Edition)




No Cover available

Artist: Uriah Heep
Year: 1973/2003
Genre: Rock
Notes: Discogs
Add. Notes: Remastered Deluxe Edition
Watch Songs on: YouTube
Cover incl.: Yes
Encoder: FLAC
Bitrate: ~900 kBit/s (44.1 kHz/16 Bit/s)
Log & Cue incl.: Yes/Yes
Size: 948,8 MB
Password: “slam” (without ” “)


All Downloads/Hosters are compatible

Download 1
KatFile.com
Turbobit.net
FileFactory.com
Rapidgator.net
Download 2
KatFile.com
Turbobit.net
FileFactory.com
Rapidgator.net

Tracklist:

1.1 Sunrise 
1.2 Sweet Lorraine 
1.3 Traveller In Time 
1.4 Easy Livin' 
1.5 July Morning 
1.6 Tears In My Eyes 
1.7 Gypsy 
1.8 Circle Of Hands 
1.9 Look At Yourself 
1.10 Magician's Birthday 
1.11 Love Machine 
Rock 'N' Roll Medley
1.12a Roll Over Beethoven 
1.12b Blue Suede Shoes 
1.12c Mean Woman Blues 
1.12d Hound Dog 
1.12e At The Hop 
1.12f Whole Lotta Shakin' Going On 
1.12g Blue Suede Shoes 

US Radio Show
2.1 Something Or Nothing 
2.2 I Won't Mind 
2.3 Look At Yourself 
2.4 Gypsy 
Film Mixes Used For Radio
2.5 Easy Livin' 
2.6 So Tired 
2.7 I Won't Mind 
2.8 Something Or Nothing 
2.9 Easy Road 
2.10 Stealin' 
2.11 Love Machine 
Rock 'N' Roll Medley '74
2.12a Roll Over Beethoven 
2.12b Blue Suede Shoes 
2.12c Mean Woman Blues 
2.12d Hound Dog 
2.12e At The Hop 
2.12f Whole Lotta Shakin' Going On 
2.12g Blue Suede Shoes 

EAC-Log, CUE-Sheed & NFO:

Click to open spoiler
Exact Audio Copy V1.0 beta 3 from 29. August 2011

EAC extraction logfile from 29. October 2013, 13:40

Uriah Heep / Uriah Heep Live (Disc 1)

Used drive : Optiarc DVD RW AD-7240S Adapter: 1 ID: 1

Read mode : Secure
Utilize accurate stream : Yes
Defeat audio cache : Yes
Make use of C2 pointers : No

Read offset correction : 48
Overread into Lead-In and Lead-Out : No
Fill up missing offset samples with silence : Yes
Delete leading and trailing silent blocks : No
Null samples used in CRC calculations : Yes
Used interface : Native Win32 interface for Win NT & 2000

Used output format : User Defined Encoder
Selected bitrate : 128 kBit/s
Quality : High
Add ID3 tag : No
Command line compressor : C:\Program Files (x86)\Exact Audio Copy\Flac\flac.exe
Additional command line options : -V -8 -T “Date=%year%” -T “Genre=%genre%” %source%

TOC of the extracted CD

Track | Start | Length | Start sector | End sector
———————————————————
1 | 0:00.00 | 5:09.44 | 0 | 23218
2 | 5:09.44 | 5:00.55 | 23219 | 45773
3 | 10:10.24 | 3:32.35 | 45774 | 61708
4 | 13:42.59 | 2:49.36 | 61709 | 74419
5 | 16:32.20 | 11:50.38 | 74420 | 127707
6 | 28:22.58 | 5:01.19 | 127708 | 150301
7 | 33:24.02 | 14:01.20 | 150302 | 213396
8 | 47:25.22 | 8:56.73 | 213397 | 253669
9 | 56:22.20 | 7:30.02 | 253670 | 287421
10 | 63:52.22 | 1:45.20 | 287422 | 295316
11 | 65:37.42 | 3:26.63 | 295317 | 310829
12 | 69:04.30 | 8:40.71 | 310830 | 349900

Range status and errors

Selected range

Filename D:\Uriah Heep – Discography\Live\1973. Live January 1973\1973. Live January 1973 De-Luxe Edition (Sanctuary SMDDD772,EU)\Uriah Heep – Uriah Heep Live (Disc 1).wav

Peak level 92.0 %
Extraction speed 4.5 X
Range quality 100.0 %
Test CRC 6899A3D9
Copy CRC 6899A3D9
Copy OK

No errors occurred

AccurateRip summary

Track 1 accurately ripped (confidence 2) [1338913E] (AR v1)
Track 2 accurately ripped (confidence 2) [30705824] (AR v1)
Track 3 accurately ripped (confidence 2) [2610DC7E] (AR v1)
Track 4 accurately ripped (confidence 2) [66A61F43] (AR v1)
Track 5 accurately ripped (confidence 2) [9DF8172D] (AR v1)
Track 6 accurately ripped (confidence 2) [8772EF52] (AR v1)
Track 7 accurately ripped (confidence 2) [164AADA5] (AR v1)
Track 8 accurately ripped (confidence 2) [504AF92C] (AR v1)
Track 9 accurately ripped (confidence 2) [1CB42377] (AR v1)
Track 10 accurately ripped (confidence 2) [12C5F369] (AR v1)
Track 11 cannot be verified as accurate (confidence 12) [E0285CC9], AccurateRip returned [C5ECAEE6] (AR v2)
Track 12 cannot be verified as accurate (confidence 12) [0715FF14], AccurateRip returned [6F0B4DAC] (AR v2)

10 трек(и) скопированы точно
2 трек(и) не удалось проверить на точность

Some tracks could not be verified as accurate

End of status report

—- CUETools DB Plugin V2.1.3

[CTDB TOCID: hh_2v6kWDCiuGYcIQj05EEoteT0-] found, Submit result: hh_2v6kWDCiuGYcIQj05EEoteT0- has been confirmed
[74aede17] (25/26) Accurately ripped
[a1a70d10] (01/26) No match

==== Log checksum 753795F687A887380D6B7096852E8B3A5611B7FA3190126DD3A8E7AE27192398 ====

Exact Audio Copy V1.0 beta 3 from 29. August 2011

EAC extraction logfile from 29. October 2013, 14:14

Uriah Heep / Uriah Heep Live (Disc 2)

Used drive : Optiarc DVD RW AD-7240S Adapter: 1 ID: 1

Read mode : Secure
Utilize accurate stream : Yes
Defeat audio cache : Yes
Make use of C2 pointers : No

Read offset correction : 48
Overread into Lead-In and Lead-Out : No
Fill up missing offset samples with silence : Yes
Delete leading and trailing silent blocks : No
Null samples used in CRC calculations : Yes
Used interface : Native Win32 interface for Win NT & 2000

Used output format : User Defined Encoder
Selected bitrate : 128 kBit/s
Quality : High
Add ID3 tag : No
Command line compressor : C:\Program Files (x86)\Exact Audio Copy\Flac\flac.exe
Additional command line options : -V -8 -T “Date=%year%” -T “Genre=%genre%” %source%

TOC of the extracted CD

Track | Start | Length | Start sector | End sector
———————————————————
1 | 0:00.00 | 3:11.01 | 0 | 14325
2 | 3:11.01 | 5:50.62 | 14326 | 40637
3 | 9:01.63 | 6:19.35 | 40638 | 69097
4 | 15:21.23 | 4:38.12 | 69098 | 89959
5 | 19:59.35 | 3:20.25 | 89960 | 104984
6 | 23:19.60 | 3:55.19 | 104985 | 122628
7 | 27:15.04 | 6:07.00 | 122629 | 150153
8 | 33:22.04 | 3:22.52 | 150154 | 165355
9 | 36:44.56 | 3:06.74 | 165356 | 179379
10 | 39:51.55 | 5:30.38 | 179380 | 204167
11 | 45:22.18 | 2:15.27 | 204168 | 214319
12 | 47:37.45 | 7:48.41 | 214320 | 249460

Range status and errors

Selected range

Filename D:\Uriah Heep – Discography\Live\1973. Live January 1973\1973. Live January 1973 De-Luxe Edition (Sanctuary SMDDD772,EU)\disc2\Uriah Heep – Uriah Heep Live (Disc 2).wav

Peak level 90.6 %
Extraction speed 3.9 X
Range quality 100.0 %
Test CRC 8FC4536C
Copy CRC 8FC4536C
Copy OK

No errors occurred

AccurateRip summary

Track 1 accurately ripped (confidence 3) [4A8AFE91] (AR v2)
Track 2 accurately ripped (confidence 3) [1CAA6D9E] (AR v2)
Track 3 accurately ripped (confidence 3) [661D31EC] (AR v2)
Track 4 accurately ripped (confidence 3) [F22697C2] (AR v2)
Track 5 accurately ripped (confidence 3) [0A8420E8] (AR v2)
Track 6 accurately ripped (confidence 3) [3BBF7036] (AR v2)
Track 7 accurately ripped (confidence 3) [85320B4D] (AR v2)
Track 8 accurately ripped (confidence 3) [A5A379B1] (AR v2)
Track 9 accurately ripped (confidence 3) [DBDD2CD2] (AR v2)
Track 10 accurately ripped (confidence 3) [BEF57961] (AR v2)
Track 11 accurately ripped (confidence 3) [F9D281FE] (AR v2)
Track 12 accurately ripped (confidence 3) [6733FFD3] (AR v2)

All tracks accurately ripped

End of status report

—- CUETools DB Plugin V2.1.3

[CTDB TOCID: wNDwyrisqe3Z350Mgna47.Ovq.A-] found, Submit result: wNDwyrisqe3Z350Mgna47.Ovq.A- has been confirmed
[adbddac5] (25/29) Accurately ripped
[0fbd742d] (04/29) No match

==== Log checksum 57E0C8C8976F55760AD445A2545F82CB0D0A5150CA325B8137821217F3172D9B ====

REM GENRE Rock
REM DATE 2003
REM DISCID A812390C
REM COMMENT “ExactAudioCopy v1.0b3”
PERFORMER “Uriah Heep”
TITLE “Uriah Heep Live (Disc 1)”
FILE “Uriah Heep – Uriah Heep Live (Disc 1).flac” WAVE
TRACK 01 AUDIO
TITLE “Sunrise”
PERFORMER “Uriah Heep”
INDEX 01 00:00:00
TRACK 02 AUDIO
TITLE “Sweet Lorraine”
PERFORMER “Uriah Heep”
INDEX 01 05:09:44
TRACK 03 AUDIO
TITLE “Traveller In Time”
PERFORMER “Uriah Heep”
INDEX 01 10:10:24
TRACK 04 AUDIO
TITLE “Easy Livin'”
PERFORMER “Uriah Heep”
INDEX 01 13:42:59
TRACK 05 AUDIO
TITLE “July Morning”
PERFORMER “Uriah Heep”
INDEX 01 16:32:20
TRACK 06 AUDIO
TITLE “Tears In My Eyes”
PERFORMER “Uriah Heep”
INDEX 01 28:22:58
TRACK 07 AUDIO
TITLE “Gypsy”
PERFORMER “Uriah Heep”
INDEX 01 33:24:02
TRACK 08 AUDIO
TITLE “Circle Of Hands”
PERFORMER “Uriah Heep”
INDEX 01 47:25:22
TRACK 09 AUDIO
TITLE “Look At Yourself”
PERFORMER “Uriah Heep”
INDEX 01 56:22:20
TRACK 10 AUDIO
TITLE “The Magician’s Birthday”
PERFORMER “Uriah Heep”
INDEX 00 63:49:18
INDEX 01 63:52:22
TRACK 11 AUDIO
TITLE “Love Machine”
PERFORMER “Uriah Heep”
INDEX 01 65:37:42
TRACK 12 AUDIO
TITLE “Rock ‘n’ Roll Medley”
PERFORMER “Uriah Heep”
INDEX 01 69:04:30

REM GENRE Rock
REM DATE 2003
REM DISCID 8C0CFE0C
REM COMMENT “ExactAudioCopy v1.0b3”
PERFORMER “Uriah Heep”
TITLE “Uriah Heep Live (Disc 2)”
FILE “Uriah Heep – Uriah Heep Live (Disc 2).flac” WAVE
TRACK 01 AUDIO
TITLE “Something Or Nothing (US Radio Show)”
PERFORMER “Uriah Heep”
INDEX 01 00:00:00
TRACK 02 AUDIO
TITLE “I Won’t Mind (US Radio Show)”
PERFORMER “Uriah Heep”
INDEX 01 03:11:01
TRACK 03 AUDIO
TITLE “Look At Yourself (US Radio Show)”
PERFORMER “Uriah Heep”
INDEX 01 09:01:63
TRACK 04 AUDIO
TITLE “Gypsy (US Radio Show)”
PERFORMER “Uriah Heep”
INDEX 01 15:21:23
TRACK 05 AUDIO
TITLE “Easy Livin’ (Film Mix For Radio)”
PERFORMER “Uriah Heep”
INDEX 00 19:57:38
INDEX 01 19:59:35
TRACK 06 AUDIO
TITLE “So Tired (Film Mix For Radio)”
PERFORMER “Uriah Heep”
INDEX 00 23:19:33
INDEX 01 23:19:60
TRACK 07 AUDIO
TITLE “I Won’t Mind (Film Mix For Radio)”
PERFORMER “Uriah Heep”
INDEX 00 27:13:64
INDEX 01 27:15:04
TRACK 08 AUDIO
TITLE “Something Or Nothing (Film Mix For Radio)”
PERFORMER “Uriah Heep”
INDEX 00 33:19:73
INDEX 01 33:22:04
TRACK 09 AUDIO
TITLE “The Easy Road (Film Mix For Radio)”
PERFORMER “Uriah Heep”
INDEX 01 36:44:56
TRACK 10 AUDIO
TITLE “Stealin’ (Film Mix For Radio)”
PERFORMER “Uriah Heep”
INDEX 01 39:51:55
TRACK 11 AUDIO
TITLE “Love Machine (Film Mix For Radio)”
PERFORMER “Uriah Heep”
INDEX 00 45:20:33
INDEX 01 45:22:18
TRACK 12 AUDIO
TITLE “Rock ‘n’ Roll Medley ’74 (Film Mix For Radio)”
PERFORMER “Uriah Heep”
INDEX 01 47:37:45


Leave a Reply

Your email address will not be published. Required fields are marked *

Enter the text from the image below
 

This site uses Akismet to reduce spam. Learn how your comment data is processed.