Uriah Heep – Uriah Heep – Live (Reissue)




Artist: Uriah Heep
Year: 1973/1993
Genre: Rock
Notes: Discogs
Add. Notes: Reissue
Cover incl.: Yes
Encoder: FLAC
Bitrate: ~800 kBit/s (44.1 kHz/16 Bit/s)
Log & Cue incl.: Yes
Size: 440,91 MB
Password: “slam” (without ” “)


All Downloads/Hosters are compatible

Download 1
Turbobit.net
KatFile.com
Rapidgator.net
Usersdrive.com
Download 2
Turbobit.net
KatFile.com
Rapidgator.net
Usersdrive.com

Tracklist:

1 - Sunrise - 05:09
2 - Sweet Lorraine - 05:01
3 - Traveller In Time - 03:32
4 - Easy Livin' - 03:01
5 - July Morning - 11:51
6 - Tears In My Eyes - 04:59
7 - Gypsy - 14:03
8 - Circle Of Hands - 08:59
9 - Look At Yourself - 07:54
10 - Magicians Birthday - 01:14
11 - Love Machine - 03:26
Rock And Roll Medley: - (08:38)
12-1 - Roll Over Beethoven - 
12-2 - Blue Suede Shoes - 
12-3 - Mean Woman Blues - 
12-4 - Hound Dog - 
12-5 - At The Hop/Whole Lotta Shakin'/Goin'On (Chorus) - 
12-6 - Blue Suede Shoes

EAC-Log, CUE-Sheed & NFO:

Click to open spoiler
Exact Audio Copy V1.0 beta 2 from 29. April 2011

EAC extraction logfile from 2. November 2011, 14:55

Uriah Heep / Live

Used drive : Optiarc DVD RW AD-7240S Adapter: 1 ID: 0

Read mode : Secure
Utilize accurate stream : Yes
Defeat audio cache : Yes
Make use of C2 pointers : No

Read offset correction : 48
Overread into Lead-In and Lead-Out : No
Fill up missing offset samples with silence : Yes
Delete leading and trailing silent blocks : No
Null samples used in CRC calculations : Yes
Used interface : Native Win32 interface for Win NT & 2000

Used output format : User Defined Encoder
Selected bitrate : 1024 kBit/s
Quality : High
Add ID3 tag : Yes
Command line compressor : C:\Program Files\Exact Audio Copy\Flac\flac.exe
Additional command line options : -6 -V -T “ARTIST=%artist%” -T “TITLE=%title%” -T “ALBUM=%albumtitle%” -T “DATE=%year%” -T “TRACKNUMBER=%tracknr%” -T “GENRE=%genre%” -T “COMMENT=%comment%” %source% -o %dest%

TOC of the extracted CD

Track | Start | Length | Start sector | End sector
———————————————————
1 | 0:00.33 | 5:09.57 | 33 | 23264
2 | 5:10.15 | 5:01.63 | 23265 | 45902
3 | 10:12.03 | 3:32.57 | 45903 | 61859
4 | 13:44.60 | 3:01.58 | 61860 | 75492
5 | 16:46.43 | 11:51.32 | 75493 | 128849
6 | 28:38.00 | 4:59.53 | 128850 | 151327
7 | 33:37.53 | 14:03.17 | 151328 | 214569
8 | 47:40.70 | 8:59.60 | 214570 | 255054
9 | 56:40.55 | 7:54.23 | 255055 | 290627
10 | 64:35.03 | 1:14.30 | 290628 | 296207
11 | 65:49.33 | 3:26.72 | 296208 | 311729
12 | 69:16.30 | 8:38.73 | 311730 | 350652

Range status and errors

Selected range

Filename E:\music\Uriah Heep\Live\1973. Live\1973. Live (Bronze Rec. 353 608, Germany)\Uriah Heep – Live.wav

Peak level 98.5 %
Extraction speed 4.6 X
Range quality 100.0 %
Test CRC EF7439E5
Copy CRC EF7439E5
Copy OK

No errors occurred

AccurateRip summary

Track 1 accurately ripped (confidence 9) [DFC2259D] (AR v1)
Track 2 accurately ripped (confidence 9) [3328A219] (AR v1)
Track 3 accurately ripped (confidence 9) [AC67DB65] (AR v1)
Track 4 accurately ripped (confidence 9) [3348340C] (AR v1)
Track 5 accurately ripped (confidence 9) [97CAEEA0] (AR v1)
Track 6 accurately ripped (confidence 9) [411719EF] (AR v1)
Track 7 accurately ripped (confidence 9) [5BEFD541] (AR v1)
Track 8 accurately ripped (confidence 9) [84385469] (AR v1)
Track 9 accurately ripped (confidence 9) [AB8CDA5D] (AR v1)
Track 10 accurately ripped (confidence 9) [D5636091] (AR v1)
Track 11 accurately ripped (confidence 9) [13D0BD1D] (AR v1)
Track 12 accurately ripped (confidence 8) [08F7C4AA] (AR v1)

All tracks accurately ripped

End of status report

==== Log checksum 72AC7E072CD5400C9FE41FA8087446921E7CA552E673640F45CB6D84D1F27D8C ====

REM GENRE “Hard Rock”
REM DATE 1973
REM DISCID 9A12430C
REM COMMENT “ExactAudioCopy v1.0b2”
PERFORMER “Uriah Heep”
TITLE “Live”
FILE “Uriah Heep – Live.flac” WAVE
TRACK 01 AUDIO
TITLE “Sunrise”
PERFORMER “Uriah Heep”
INDEX 00 00:00:00
INDEX 01 00:00:33
TRACK 02 AUDIO
TITLE “Sweet Lorraine”
PERFORMER “Uriah Heep”
INDEX 01 05:10:15
TRACK 03 AUDIO
TITLE “Traveller In Time”
PERFORMER “Uriah Heep”
INDEX 01 10:12:03
TRACK 04 AUDIO
TITLE “Easy Livin”
PERFORMER “Uriah Heep”
INDEX 01 13:44:60
TRACK 05 AUDIO
TITLE “July Morning”
PERFORMER “Uriah Heep”
INDEX 01 16:46:43
TRACK 06 AUDIO
TITLE “Tears In My Eyes”
PERFORMER “Uriah Heep”
INDEX 01 28:38:00
TRACK 07 AUDIO
TITLE “Gypsy”
PERFORMER “Uriah Heep”
INDEX 01 33:37:53
TRACK 08 AUDIO
TITLE “Circle Of Hands”
PERFORMER “Uriah Heep”
INDEX 01 47:40:70
TRACK 09 AUDIO
TITLE “Look At Yourself”
PERFORMER “Uriah Heep”
INDEX 01 56:40:55
TRACK 10 AUDIO
TITLE “Magicians Birthday”
PERFORMER “Uriah Heep”
INDEX 01 64:35:03
TRACK 11 AUDIO
TITLE “Love Machine”
PERFORMER “Uriah Heep”
INDEX 01 65:49:33
TRACK 12 AUDIO
TITLE “Rock And Roll Medley: Roll Over Beethoven/Blue Suede Shoes/Mean Woman Blues/H…”
PERFORMER “Uriah Heep”
INDEX 01 69:16:30


Leave a Reply

Your email address will not be published. Required fields are marked *

Enter the text from the image below
 

This site uses Akismet to reduce spam. Learn how your comment data is processed.