Uriah Heep – The Magician’s Birthday




Artist: Uriah Heep
Year: 1972/1987
Genre: Rock
Notes: Discogs
Add. Notes:
Cover incl.: Yes
Encoder: FLAC
Bitrate: ~800 kBit/s (44.1 kHz/16 Bit/s)
Log & Cue incl.: Yes
Size: 241,88 MB
Password: “slam” (without ” “)


All Downloads/Hosters are compatible

Download 1
NitroFlare.com
KatFile.com
Turbobit.net
Rapidgator.net
UploadRar.com
Download 2
NitroFlare.com
KatFile.com
Turbobit.net
Rapidgator.net
UploadRar.com

Tracklist:

1 - Sunrise 
2 - Spider Woman 
3 - Blind Eye 
4 - Echoes In The Dark 
5 - Rain 
6 - Sweet Lorraine 
7 - Tales  
8 - The Magician's Birthday

EAC-Log, CUE-Sheed & NFO:

Click to open spoiler
Exact Audio Copy V1.0 beta 3 from 29. August 2011

EAC extraction logfile from 6. May 2013, 12:50

Uriah Heep / The Magician’s Birthday (260 135-217)

Used drive : SONY BD RW BDX-S600U Adapter: 2 ID: 0

Read mode : Secure
Utilize accurate stream : Yes
Defeat audio cache : Yes
Make use of C2 pointers : No

Read offset correction : 48
Overread into Lead-In and Lead-Out : No
Fill up missing offset samples with silence : Yes
Delete leading and trailing silent blocks : No
Null samples used in CRC calculations : Yes
Used interface : Native Win32 interface for Win NT & 2000

Used output format : User Defined Encoder
Selected bitrate : 128 kBit/s
Quality : High
Add ID3 tag : No
Command line compressor : C:\Program Files\Exact Audio Copy\Flac\flac.exe
Additional command line options : -V -8 -T “Date=%year%” -T “Genre=%genre%” %source%

TOC of the extracted CD

Track | Start | Length | Start sector | End sector
———————————————————
1 | 0:00.33 | 4:05.72 | 33 | 18479
2 | 4:06.30 | 2:28.08 | 18480 | 29587
3 | 6:34.38 | 3:34.15 | 29588 | 45652
4 | 10:08.53 | 4:50.15 | 45653 | 67417
5 | 14:58.68 | 4:00.62 | 67418 | 85479
6 | 18:59.55 | 4:16.38 | 85480 | 104717
7 | 23:16.18 | 4:09.35 | 104718 | 123427
8 | 27:25.53 | 10:20.55 | 123428 | 169982

Range status and errors

Selected range

Filename H:\ALIK\Uriah Heep – Discography\Studio\1972. The Magician’s Birthday\1972. The Magician’s Birthday (Bronze Rec. 260 135, Germany)\Uriah Heep – The Magician’s Birthday (260 135-217).wav

Peak level 98.0 %
Extraction speed 6.1 X
Range quality 100.0 %
Test CRC CEE07FE2
Copy CRC CEE07FE2
Copy OK

No errors occurred

AccurateRip summary

Track 1 accurately ripped (confidence 2) [CB373FB1] (AR v2)
Track 2 accurately ripped (confidence 2) [1FE1904B] (AR v2)
Track 3 accurately ripped (confidence 2) [A02C0E02] (AR v2)
Track 4 accurately ripped (confidence 2) [BA22BB78] (AR v2)
Track 5 accurately ripped (confidence 2) [F68DCCC4] (AR v2)
Track 6 accurately ripped (confidence 2) [BC256D94] (AR v2)
Track 7 accurately ripped (confidence 2) [B5371D6E] (AR v2)
Track 8 accurately ripped (confidence 2) [D5F72C98] (AR v2)

All tracks accurately ripped

End of status report

—- CUETools DB Plugin V2.1.3

[CTDB TOCID: .NG9r8Yc3BhB9_szd30p2Y_Myps-] found, Submit result: discs with pregaps not supported in this protocol version
[cf338831] (4/4) Differs in 0 samples @
You can use CUETools to repair this rip.

==== Log checksum E7412BEC2E1FC584CF7AFBEC2BE35FB8FA01929D569FEA77B50C8179495AD944 ====

REM GENRE “Progressive Rock”
REM DATE 1972
REM DISCID 6008DA08
REM COMMENT “ExactAudioCopy v1.0b3”
CATALOG 0000000000000
PERFORMER “Uriah Heep”
TITLE “The Magician’s Birthday (260 135-217)”
FILE “Uriah Heep – The Magician’s Birthday (260 135-217).flac” WAVE
TRACK 01 AUDIO
TITLE “Sunrise”
PERFORMER “Uriah Heep”
INDEX 00 00:00:00
INDEX 01 00:00:33
TRACK 02 AUDIO
TITLE “Spider Woman”
PERFORMER “Uriah Heep”
INDEX 00 04:04:48
INDEX 01 04:06:30
TRACK 03 AUDIO
TITLE “Blind Eye”
PERFORMER “Uriah Heep”
INDEX 00 06:32:33
INDEX 01 06:34:38
TRACK 04 AUDIO
TITLE “Echoes In The Dark”
PERFORMER “Uriah Heep”
INDEX 00 10:07:23
INDEX 01 10:08:53
TRACK 05 AUDIO
TITLE “Rain”
PERFORMER “Uriah Heep”
INDEX 00 14:57:18
INDEX 01 14:58:68
TRACK 06 AUDIO
TITLE “Sweet Lorraine”
PERFORMER “Uriah Heep”
INDEX 00 18:57:73
INDEX 01 18:59:55
TRACK 07 AUDIO
TITLE “Tales”
PERFORMER “Uriah Heep”
INDEX 00 23:14:73
INDEX 01 23:16:18
TRACK 08 AUDIO
TITLE “The Magician’s Birthday”
PERFORMER “Uriah Heep”
INDEX 00 27:24:40
INDEX 01 27:25:53


Leave a Reply

Your email address will not be published. Required fields are marked *

This site uses Akismet to reduce spam. Learn how your comment data is processed.