Uriah Heep – The Magician’s Birthday (Remastered)




Artist: Uriah Heep
Year: 1972/2011
Genre: Rock
Notes: Discogs
Add. Notes: Remastered
Cover incl.: Yes
Encoder: FLAC
Bitrate: ~900 kBit/s (44.1 kHz/16 Bit/s)
Log & Cue incl.: Yes
Size: 341,13 MB
Password: “slam” (without ” “)


All Downloads/Hosters are compatible

Download 1
Turbobit.net
Rapidgator.net
KatFile.com
UploadRar.com
Download 2
Turbobit.net
Rapidgator.net
KatFile.com
UploadRar.com

Tracklist:

1. Sunrise
2. Spider Woman
3. Blind Eye
4. Echoes In The Dark
5. Rain
6. Sweet Lorraine
7. Tales
8. The Magician's Birthday

EAC-Log, CUE-Sheed & NFO:

Click to open spoiler
Exact Audio Copy V0.99 prebeta 5 from 4. May 2009

Отчёт EAC об извлечении, выполненном 16. августа 2010, 9:51

Uriah Heep / The Magician’s Birthday

Дисковод: MATSHITADVD-RAM UJ-850S Adapter: 1 ID: 0

Режим чтения : Достоверность
Использование точного потока : Да
Отключение кэша аудио : Да
Использование указателей C2 : Нет

Коррекция смещения при чтении : 102
Способность читать области Lead-in и Lead-out : Нет
Заполнение пропущенных сэмплов тишиной : Да
Удаление блоков с тишиной в начале и конце : Нет
При вычислениях CRC использовались нулевые сэмплы : Да
Интерфейс : Встроенный Win32-интерфейс для Win NT/2000

Выходной формат : Пользовательский кодировщик
Выбранный битрейт : 768 kBit/s
Качество : Высокий
Добавление ID3-тэга : Нет
Утилита сжатия : C:\Program Files\Exact Audio Copy\Flac\flac.exe
Дополнительные параметры : -6 -V -T “ARTIST=%a” -T “TITLE=%t” -T “ALBUM=%g” -T “DATE=%y” -T “TRACKNUMBER=%n” -T “GENRE=%m” -T “COMMENT=%e” %s -o %d

TOC извлечённого CD

Трек | Старт | Длительность | Начальный сектор | Конечный сектор
———————————————————————
1 | 0:00.00 | 4:05.42 | 0 | 18416
2 | 4:05.42 | 2:27.65 | 18417 | 29506
3 | 6:33.32 | 3:33.43 | 29507 | 45524
4 | 10:07.00 | 4:51.35 | 45525 | 67384
5 | 14:58.35 | 4:00.67 | 67385 | 85451
6 | 18:59.27 | 4:15.55 | 85452 | 104631
7 | 23:15.07 | 4:08.68 | 104632 | 123299
8 | 27:24.00 | 10:20.17 | 123300 | 169816

Характеристики диапазона извлечения и сообщения об ошибках

Выбранный диапазон

Имя файла G:\ALIK\Root\Uriah Heep box set\Magician’s Birthday\Uriah Heep – The Magician’s Birthday.wav

Пиковый уровень 99.7 %
Качество диапазона 100.0 %
CRC теста 007EC150
CRC копии 007EC150
Копирование… OK

Ошибок не произошло

AccurateRip: сводка

Трек 1 точное извлечение (доверие 8) [6D99722F]
Трек 2 точное извлечение (доверие 8) [09483E46]
Трек 3 точное извлечение (доверие 8) [F034B7E2]
Трек 4 точное извлечение (доверие 8) [5C52C2E0]
Трек 5 точное извлечение (доверие 8) [31A45D5A]
Трек 6 точное извлечение (доверие 8) [B907F17A]
Трек 7 точное извлечение (доверие 8) [263BD09C]
Трек 8 точное извлечение (доверие 7) [D6D4D47F]

Все треки извлечены точно

Конец отчёта

REM GENRE “Hard Rock”
REM DATE 1972
REM DISCID 6408D808
REM COMMENT “ExactAudioCopy v0.99pb5”
PERFORMER “Uriah Heep”
TITLE “The Magician’s Birthday”
FILE “Uriah Heep – The Magician’s Birthday.flac” WAVE
TRACK 01 AUDIO
TITLE “Sunrise”
PERFORMER “Uriah Heep”
INDEX 01 00:00:00
TRACK 02 AUDIO
TITLE “Spider Woman”
PERFORMER “Uriah Heep”
INDEX 00 04:03:02
INDEX 01 04:05:42
TRACK 03 AUDIO
TITLE “Blind Eye”
PERFORMER “Uriah Heep”
INDEX 00 06:31:00
INDEX 01 06:33:32
TRACK 04 AUDIO
TITLE “Echoes in the Dark”
PERFORMER “Uriah Heep”
INDEX 00 10:05:30
INDEX 01 10:07:00
TRACK 05 AUDIO
TITLE “Rain”
PERFORMER “Uriah Heep”
INDEX 00 14:54:55
INDEX 01 14:58:35
TRACK 06 AUDIO
TITLE “Sweet Lorraine”
PERFORMER “Uriah Heep”
INDEX 00 18:58:05
INDEX 01 18:59:27
TRACK 07 AUDIO
TITLE “Tales”
PERFORMER “Uriah Heep”
INDEX 00 23:13:50
INDEX 01 23:15:07
TRACK 08 AUDIO
TITLE “The Magician’s Birthday”
PERFORMER “Uriah Heep”
INDEX 00 27:22:02
INDEX 01 27:24:00


Leave a Reply

Your email address will not be published. Required fields are marked *

This site uses Akismet to reduce spam. Learn how your comment data is processed.