Uriah Heep – The Magician’s Birthday (Remastered)




[Total: 0    Average: 0/5]

Artist: Uriah Heep
Year: 1972
Genre: Rock
Notes: Discogs
Add. Notes: Remastered
Cover incl.: Yes
Encoder: FLAC
Bitrate: ~900 kBit/s (44.1 kHz/16 Bit/s)
Log & Cue incl.: Yes
Size: 509 MB
Password: “slam” (without ” “)


All Downloads/Hosters are compatible

Download 1
KatFile.com
Turbobit.net
FileFactory.com
Rapidgator.net
Download 2
KatFile.com
Turbobit.net
FileFactory.com
Rapidgator.net

Tracklist:

1 - Sunrise - 4:04
2 - Spider Woman - 2:25
3 - Blind Eye - 3:33
4 - Echoes In The Dark - 4:48
5 - Rain - 3:59
6 - Sweet Lorraine - 4:13
7 - Tales - 4:09
8 - The Magician's Birthday - 10:23
Bonus Tracks
9 - Silver White Man (Previously 
Unreleased) - 3:43
10 - Crystal Ball (Previously 
Unreleased) - 4:08

EAC-Log, CUE-Sheed & NFO:

Click to open spoiler
Exact Audio Copy V0.99 prebeta 5 from 4. May 2009

Отчёт EAC об извлечении, выполненном 17. апреля 2011, 19:54

Uriah Heep / The Magician’s Birthday

Дисковод: Optiarc DVD RW AD-7240S Adapter: 1 ID: 0

Режим чтения : Достоверность
Использование точного потока : Да
Отключение кэша аудио : Да
Использование указателей C2 : Нет

Коррекция смещения при чтении : 48
Способность читать области Lead-in и Lead-out : Нет
Заполнение пропущенных сэмплов тишиной : Да
Удаление блоков с тишиной в начале и конце : Нет
При вычислениях CRC использовались нулевые сэмплы : Да
Интерфейс : Встроенный Win32-интерфейс для Win NT/2000

Выходной формат : Пользовательский кодировщик
Выбранный битрейт : 768 kBit/s
Качество : Высокий
Добавление ID3-тэга : Нет
Утилита сжатия : C:\Program Files\Exact Audio Copy\FLAC\FLAC.EXE
Дополнительные параметры : -6 -V -T “ARTIST=%a” -T “TITLE=%t” -T “ALBUM=%g” -T “DATE=%y” -T “TRACKNUMBER=%n” -T “GENRE=%m” -T “COMMENT=%e” %s -o %d

TOC извлечённого CD

Трек | Старт | Длительность | Начальный сектор | Конечный сектор
———————————————————————
1 | 0:00.00 | 4:05.20 | 0 | 18394
2 | 4:05.20 | 2:27.72 | 18395 | 29491
3 | 6:33.17 | 3:33.45 | 29492 | 45511
4 | 10:06.62 | 4:51.38 | 45512 | 67374
5 | 14:58.25 | 4:00.65 | 67375 | 85439
6 | 18:59.15 | 4:15.57 | 85440 | 104621
7 | 23:14.72 | 4:08.68 | 104622 | 123289
8 | 27:23.65 | 10:23.52 | 123290 | 170066
9 | 37:47.42 | 3:43.50 | 170067 | 186841
10 | 41:31.17 | 4:08.05 | 186842 | 205446

Характеристики диапазона извлечения и сообщения об ошибках

Выбранный диапазон

Имя файла E:\music\Uriah Heep\1972. The Magician’s Birthday\1972. The Magician’s Birthday (Castle ESMCD 339, England)\Uriah Heep – The Magician’s Birthday.wav

Пиковый уровень 100.0 %
Качество диапазона 100.0 %
CRC теста 7C7F14D7
CRC копии 7C7F14D7
Копирование… OK

Ошибок не произошло

AccurateRip: сводка

Трек 1 точное извлечение (доверие 6) [AF1E57BD]
Трек 2 точное извлечение (доверие 6) [88D7EEBD]
Трек 3 точное извлечение (доверие 6) [A24E646D]
Трек 4 точное извлечение (доверие 6) [4352B835]
Трек 5 точное извлечение (доверие 6) [9D197E19]
Трек 6 точное извлечение (доверие 6) [846DC751]
Трек 7 точное извлечение (доверие 6) [4891415D]
Трек 8 точное извлечение (доверие 4) [0EFA5778]
Трек 9 точное извлечение (доверие 6) [425C983F]
Трек 10 точное извлечение (доверие 6) [49DC419F]

Все треки извлечены точно

Конец отчёта

REM GENRE Rock
REM DATE 1972
REM DISCID 860AB30A
REM COMMENT “ExactAudioCopy v0.99pb5”
PERFORMER “Uriah Heep”
TITLE “The Magician’s Birthday”
FILE “Uriah Heep – The Magician’s Birthday.flac” WAVE
TRACK 01 AUDIO
TITLE “Sunrise”
PERFORMER “Uriah Heep”
INDEX 01 00:00:00
TRACK 02 AUDIO
TITLE “Spider woman”
PERFORMER “Uriah Heep”
INDEX 00 04:02:72
INDEX 01 04:05:20
TRACK 03 AUDIO
TITLE “Blind eye”
PERFORMER “Uriah Heep”
INDEX 00 06:30:70
INDEX 01 06:33:17
TRACK 04 AUDIO
TITLE “Echoes in the dark”
PERFORMER “Uriah Heep”
INDEX 00 10:05:40
INDEX 01 10:06:62
TRACK 05 AUDIO
TITLE “Rain”
PERFORMER “Uriah Heep”
INDEX 00 14:54:60
INDEX 01 14:58:25
TRACK 06 AUDIO
TITLE “Sweet Lorraine”
PERFORMER “Uriah Heep”
INDEX 01 18:59:15
TRACK 07 AUDIO
TITLE “Tales”
PERFORMER “Uriah Heep”
INDEX 00 23:13:70
INDEX 01 23:14:72
TRACK 08 AUDIO
TITLE “The magician’s birthday”
PERFORMER “Uriah Heep”
INDEX 00 27:22:30
INDEX 01 27:23:65
TRACK 09 AUDIO
TITLE “Silver white man (previously unreleased version) [bonus track]”
PERFORMER “Uriah Heep”
INDEX 00 37:43:70
INDEX 01 37:47:42
TRACK 10 AUDIO
TITLE “Crystal ball (previously unreleased) [bonus track]”
PERFORMER “Uriah Heep”
INDEX 00 41:29:30
INDEX 01 41:31:17


Spread the Download

Leave a Reply

Your email address will not be published. Required fields are marked *

Enter the text from the image below
 

This site uses Akismet to reduce spam. Learn how your comment data is processed.