Uriah Heep – The Magician’s Birthday (Reissue)




Image not found

Artist: Uriah Heep
Year: 1972/1987
Genre: Rock
Notes: Discogs
Add. Notes: Reissue
Cover incl.: Yes
Encoder: FLAC
Bitrate: ~800 kBit/s (44.1 kHz/16 Bit/s)
Log & Cue incl.: Yes/Yes
Size: 280,3 MB
Password: “slam” (without ” “)


All Downloads/Hosters are compatible

Download 1
KatFile.com
Turbobit.net
FileFactory.com
Rapidgator.net
Download 2
KatFile.com
Turbobit.net
FileFactory.com
Rapidgator.net

Tracklist:

1 Sunrise 4:04
2 Spider Woman 2:27
3 Blind Eye 3:34
4 Echoes In The Dark 4:50
5 Rain 3:59
6 Sweet Lorraine 4:15
7 Tales 4:08
8 The Magician's Birthday 10:14

EAC-Log, CUE-Sheed & NFO:

Click to open spoiler
Exact Audio Copy V1.0 beta 3 from 29. August 2011

EAC extraction logfile from 5. October 2014, 1:53

Uriah Heep / The Magician’s Birthday

Used drive : SONY BD RW BDX-S600U Adapter: 2 ID: 1

Read mode : Secure
Utilize accurate stream : Yes
Defeat audio cache : Yes
Make use of C2 pointers : No

Read offset correction : 48
Overread into Lead-In and Lead-Out : No
Fill up missing offset samples with silence : Yes
Delete leading and trailing silent blocks : No
Null samples used in CRC calculations : Yes
Used interface : Native Win32 interface for Win NT & 2000

Used output format : User Defined Encoder
Selected bitrate : 128 kBit/s
Quality : High
Add ID3 tag : No
Command line compressor : C:\Program Files (x86)\Exact Audio Copy\Flac\flac.exe
Additional command line options : -V -8 -T “Date=%year%” -T “Genre=%genre%” %source%

TOC of the extracted CD

Track | Start | Length | Start sector | End sector
———————————————————
1 | 0:00.33 | 4:04.17 | 33 | 18349
2 | 4:04.50 | 2:27.60 | 18350 | 29434
3 | 6:32.35 | 3:34.25 | 29435 | 45509
4 | 10:06.60 | 4:50.70 | 45510 | 67329
5 | 14:57.55 | 3:59.63 | 67330 | 85317
6 | 18:57.43 | 4:15.55 | 85318 | 104497
7 | 23:13.23 | 4:08.25 | 104498 | 123122
8 | 27:21.48 | 10:14.47 | 123123 | 169219

Range status and errors

Selected range

Filename D:\Uriah Heep – Discography\Studio\1972. The Magician’s Birthday\1972. The Magician’s Birthday (Carrere,96 783-Carrere,France)\Uriah Heep – The Magician’s Birthday.wav

Peak level 93.6 %
Extraction speed 6.1 X
Range quality 99.9 %
Test CRC E2EEABA5
Copy CRC E2EEABA5
Copy OK

No errors occurred

AccurateRip summary

Track 1 accurately ripped (confidence 1) [F2FBE0E0] (AR v1)
Track 2 accurately ripped (confidence 1) [5B489D74] (AR v1)
Track 3 accurately ripped (confidence 1) [C57C00B9] (AR v1)
Track 4 accurately ripped (confidence 1) [AB10E724] (AR v1)
Track 5 accurately ripped (confidence 1) [0461F82E] (AR v1)
Track 6 accurately ripped (confidence 1) [BCA8E439] (AR v1)
Track 7 accurately ripped (confidence 1) [08AD4CA8] (AR v1)
Track 8 accurately ripped (confidence 1) [8A5FBFC1] (AR v1)

All tracks accurately ripped

End of status report

—- CUETools DB Plugin V2.1.4

[CTDB TOCID: KkYoVAQW0GnCUNooEnmMjSfQ1MY-] disk not present in database
Submit result: KkYoVAQW0GnCUNooEnmMjSfQ1MY- has been uploaded

==== Log checksum D54576047F4F12FA742B622B61E09DB2F4FCBF230B9CE75508E453CC6AEAD9D7 ====

REM GENRE Rock
REM DATE 1972
REM DISCID 7408D008
REM COMMENT “ExactAudioCopy v1.0b3”
CATALOG 0000000000000
PERFORMER “Uriah Heep”
TITLE “The Magician’s Birthday”
FILE “Uriah Heep – The Magician’s Birthday.flac” WAVE
TRACK 01 AUDIO
TITLE “Sunrise”
PERFORMER “Uriah Heep”
INDEX 00 00:00:00
INDEX 01 00:00:33
TRACK 02 AUDIO
TITLE “Spider Woman”
PERFORMER “Uriah Heep”
INDEX 00 04:02:53
INDEX 01 04:04:50
TRACK 03 AUDIO
TITLE “Blind Eye”
PERFORMER “Uriah Heep”
INDEX 00 06:29:63
INDEX 01 06:32:35
TRACK 04 AUDIO
TITLE “Echoes in the Dark”
PERFORMER “Uriah Heep”
INDEX 00 10:03:53
INDEX 01 10:06:60
TRACK 05 AUDIO
TITLE “Rain”
PERFORMER “Uriah Heep”
INDEX 00 14:53:40
INDEX 01 14:57:55
TRACK 06 AUDIO
TITLE “Sweet Lorraine”
PERFORMER “Uriah Heep”
INDEX 00 18:54:53
INDEX 01 18:57:43
TRACK 07 AUDIO
TITLE “Tales”
PERFORMER “Uriah Heep”
INDEX 00 23:08:73
INDEX 01 23:13:23
TRACK 08 AUDIO
TITLE “The Magician’s Birthday”
PERFORMER “Uriah Heep”
INDEX 00 27:18:30
INDEX 01 27:21:48


Leave a Reply

Your email address will not be published. Required fields are marked *

Enter the text from the image below
 

This site uses Akismet to reduce spam. Learn how your comment data is processed.