Uriah Heep – The Magician’s Birthday (Japanese Edition)




Artist: Uriah Heep
Year: 1972/1989
Genre: Rock
Notes: Discogs
Add. Notes: Japanese Edition
Cover incl.: Yes
Encoder: FLAC
Bitrate: ~900 kBit/s (44.1 kHz/16 Bit/s)
Log & Cue incl.: Yes
Size: 256 MB
Password: “slam” (without ” “)


All Downloads/Hosters are compatible

Download 1
KatFile.com
Rapidgator.net
Turbobit.net
FileFactory.com
Download 2
KatFile.com
Rapidgator.net
Turbobit.net
FileFactory.com

Tracklist:

1 - Sunrise - 4:04
2 - Spider Woman - 2:25
3 - Blind Eye - 3:33
4 - Echoes In The Dark - 4:48
5 - Rain - 3:59
6 - Sweet Lorraine - 4:13
7 - Tales - 4:09
8 - The Magician's Birthday - 10:23

EAC-Log, CUE-Sheed & NFO:

Click to open spoiler
Exact Audio Copy V0.99 prebeta 5 from 4. May 2009

Отчёт EAC об извлечении, выполненном 14. марта 2011, 22:31

Uriah Heep / The Magician’s Birthday

Дисковод: ASUS SDRW-08D2S-U Adapter: 2 ID: 0

Режим чтения : Достоверность
Использование точного потока : Да
Отключение кэша аудио : Да
Использование указателей C2 : Нет

Коррекция смещения при чтении : 103
Способность читать области Lead-in и Lead-out : Нет
Заполнение пропущенных сэмплов тишиной : Да
Удаление блоков с тишиной в начале и конце : Нет
При вычислениях CRC использовались нулевые сэмплы : Да
Интерфейс : Встроенный Win32-интерфейс для Win NT/2000

Выходной формат : Пользовательский кодировщик
Выбранный битрейт : 768 kBit/s
Качество : Высокий
Добавление ID3-тэга : Нет
Утилита сжатия : C:\Program Files\Exact Audio Copy\FLAC\FLAC.EXE
Дополнительные параметры : -8 -V %s

TOC извлечённого CD

Трек | Старт | Длительность | Начальный сектор | Конечный сектор
———————————————————————
1 | 0:00.37 | 4:06.20 | 37 | 18506
2 | 4:06.57 | 2:29.20 | 18507 | 29701
3 | 6:36.02 | 3:36.33 | 29702 | 45934
4 | 10:12.35 | 4:53.02 | 45935 | 67911
5 | 15:05.37 | 4:02.68 | 67912 | 86129
6 | 19:08.30 | 4:17.50 | 86130 | 105454
7 | 23:26.05 | 4:10.45 | 105455 | 124249
8 | 27:36.50 | 10:21.45 | 124250 | 170869

Характеристики диапазона извлечения и сообщения об ошибках

Выбранный диапазон

Имя файла D:\uTorrent.compl\Uriah Heep – Studio Albums 1970 – 1977 ( Japan 1st & 2nd Press Rare )\The Magician’s Birthday 1972 ( 1989, Japan 1st Press, Teichiku TECP-18009 )\Uriah Heep – The Magician’s Birthday.wav

Пиковый уровень 100.0 %
Качество диапазона 100.0 %
CRC теста C05CABB6
CRC копии C05CABB6
Копирование… OK

Ошибок не произошло

AccurateRip: сводка

Трек 1 нет в базе данных
Трек 2 нет в базе данных
Трек 3 нет в базе данных
Трек 4 нет в базе данных
Трек 5 нет в базе данных
Трек 6 нет в базе данных
Трек 7 нет в базе данных
Трек 8 нет в базе данных

Ни одного трека нет в базе AccurateRip

Конец отчёта

REM GENRE “Hard Rock”
REM DATE 1972
REM DISCID 6708E608
REM COMMENT “ExactAudioCopy v0.99pb5”
PERFORMER “Uriah Heep”
TITLE “The Magician’s Birthday”
FILE “Uriah Heep – The Magician’s Birthday.flac” WAVE
TRACK 01 AUDIO
TITLE “Sunrise”
PERFORMER “Uriah Heep”
INDEX 00 00:00:00
INDEX 01 00:00:37
TRACK 02 AUDIO
TITLE “Spider Woman”
PERFORMER “Uriah Heep”
INDEX 00 04:05:42
INDEX 01 04:06:57
TRACK 03 AUDIO
TITLE “Blind Eye”
PERFORMER “Uriah Heep”
INDEX 00 06:33:74
INDEX 01 06:36:02
TRACK 04 AUDIO
TITLE “Echoes In The Dark”
PERFORMER “Uriah Heep”
INDEX 00 10:10:11
INDEX 01 10:12:35
TRACK 05 AUDIO
TITLE “Rain”
PERFORMER “Uriah Heep”
INDEX 00 15:01:55
INDEX 01 15:05:37
TRACK 06 AUDIO
TITLE “Sweet Lorraine”
PERFORMER “Uriah Heep”
INDEX 00 19:05:69
INDEX 01 19:08:30
TRACK 07 AUDIO
TITLE “Tales”
PERFORMER “Uriah Heep”
INDEX 00 23:23:41
INDEX 01 23:26:05
TRACK 08 AUDIO
TITLE “The Magician’s Birthday”
PERFORMER “Uriah Heep”
INDEX 00 27:34:20
INDEX 01 27:36:50


Leave a Reply

Your email address will not be published. Required fields are marked *

Enter the text from the image below
 

This site uses Akismet to reduce spam. Learn how your comment data is processed.