Uriah Heep – The Magician’s Birthday




[Total: 0    Average: 0/5]

Artist: Uriah Heep
Year: 1972
Genre: Rock
Notes: Discogs
Add. Notes:
Cover incl.: Yes
Encoder: FLAC
Bitrate: ~900 kBit/s (44.1 kHz/16 Bit/s)
Log & Cue incl.: Yes
Size: 344,17 MB
Password: “slam” (without ” “)


All Downloads/Hosters are compatible

Download 1
Share-online.biz
KatFile.com
Rapidgator.net
Download 2
Share-online.biz
KatFile.com
Rapidgator.net

Tracklist:

1 - Sunrise - 4:04
2 - Spider Woman - 2:25
3 - Blind Eye - 3:33
4 - Echoes In The Dark - 4:48
5 - Rain - 3:59
6 - Sweet Lorraine - 4:13
7 - Tales - 4:09
8 - The Magician's Birthday - 10:23

EAC-Log, CUE-Sheed & NFO:

Click to open spoiler
Exact Audio Copy V0.99 prebeta 5 from 4. May 2009

Отчёт EAC об извлечении, выполненном 17. апреля 2011, 18:42

Uriah Heep / The Magician’s Birthday

Дисковод: Optiarc DVD RW AD-7240S Adapter: 1 ID: 0

Режим чтения : Достоверность
Использование точного потока : Да
Отключение кэша аудио : Да
Использование указателей C2 : Нет

Коррекция смещения при чтении : 48
Способность читать области Lead-in и Lead-out : Нет
Заполнение пропущенных сэмплов тишиной : Да
Удаление блоков с тишиной в начале и конце : Нет
При вычислениях CRC использовались нулевые сэмплы : Да
Интерфейс : Встроенный Win32-интерфейс для Win NT/2000

Выходной формат : Пользовательский кодировщик
Выбранный битрейт : 768 kBit/s
Качество : Высокий
Добавление ID3-тэга : Нет
Утилита сжатия : C:\Program Files\Exact Audio Copy\FLAC\FLAC.EXE
Дополнительные параметры : -6 -V -T “ARTIST=%a” -T “TITLE=%t” -T “ALBUM=%g” -T “DATE=%y” -T “TRACKNUMBER=%n” -T “GENRE=%m” -T “COMMENT=%e” %s -o %d

TOC извлечённого CD

Трек | Старт | Длительность | Начальный сектор | Конечный сектор
———————————————————————
1 | 0:00.32 | 4:05.40 | 32 | 18446
2 | 4:05.72 | 2:28.73 | 18447 | 29619
3 | 6:34.70 | 3:36.52 | 29620 | 45871
4 | 10:11.47 | 4:52.15 | 45872 | 67786
5 | 15:03.62 | 4:01.18 | 67787 | 85879
6 | 19:05.05 | 4:18.25 | 85880 | 105254
7 | 23:23.30 | 4:10.60 | 105255 | 124064
8 | 27:34.15 | 10:21.05 | 124065 | 170644

Характеристики диапазона извлечения и сообщения об ошибках

Выбранный диапазон

Имя файла E:\music\Uriah Heep\1972. The Magician’s Birthday\1972. The Magician’s Birthday (Mercury 812 298-2, USA)\Uriah Heep – The Magician’s Birthday.wav

Пиковый уровень 94.3 %
Качество диапазона 100.0 %
CRC теста 200D2165
CRC копии 200D2165
Копирование… OK

Ошибок не произошло

AccurateRip: сводка

Трек 1 точное извлечение (доверие 16) [D29A521F]
Трек 2 точное извлечение (доверие 17) [6A4EB28A]
Трек 3 точное извлечение (доверие 17) [23219F11]
Трек 4 точное извлечение (доверие 17) [E197A7DD]
Трек 5 точное извлечение (доверие 17) [908D538B]
Трек 6 точное извлечение (доверие 17) [4428295A]
Трек 7 точное извлечение (доверие 17) [BAA88EF8]
Трек 8 точное извлечение (доверие 14) [E077A6C9]

Все треки извлечены точно

Конец отчёта

REM GENRE Rock
REM DATE 1972
REM DISCID 6208E308
REM COMMENT “ExactAudioCopy v0.99pb5”
PERFORMER “Uriah Heep”
TITLE “The Magician’s Birthday”
FILE “Uriah Heep – The Magician’s Birthday.flac” WAVE
TRACK 01 AUDIO
TITLE “Sunrise”
PERFORMER “Uriah Heep”
INDEX 00 00:00:00
INDEX 01 00:00:32
TRACK 02 AUDIO
TITLE “Spider Woman”
PERFORMER “Uriah Heep”
INDEX 00 04:04:32
INDEX 01 04:05:72
TRACK 03 AUDIO
TITLE “Blind Eye”
PERFORMER “Uriah Heep”
INDEX 00 06:32:32
INDEX 01 06:34:70
TRACK 04 AUDIO
TITLE “Echoes In the Dark”
PERFORMER “Uriah Heep”
INDEX 00 10:08:32
INDEX 01 10:11:47
TRACK 05 AUDIO
TITLE “Rain”
PERFORMER “Uriah Heep”
INDEX 00 15:01:07
INDEX 01 15:03:62
TRACK 06 AUDIO
TITLE “Sweet Lorraine”
PERFORMER “Uriah Heep”
INDEX 00 19:02:70
INDEX 01 19:05:05
TRACK 07 AUDIO
TITLE “Tales”
PERFORMER “Uriah Heep”
INDEX 00 23:20:45
INDEX 01 23:23:30
TRACK 08 AUDIO
TITLE “The Magician’s Birthday”
PERFORMER “Uriah Heep”
INDEX 00 27:31:20
INDEX 01 27:34:15


Spread the Download

Leave a Reply

Your email address will not be published. Required fields are marked *

Enter the text from the image below
 

This site uses Akismet to reduce spam. Learn how your comment data is processed.