Uriah Heep – The Lansdowne Tapes




Artist: Uriah Heep
Year: 1993
Genre: Rock
Notes: Discogs
Add. Notes:
Cover incl.: Yes
Encoder: FLAC
Bitrate: ~800 kBit/s (44.1 kHz/16 Bit/s)
Log & Cue incl.: Yes
Size: 686 MB
Password: “slam” (without ” “)


All Downloads/Hosters are compatible

Download 1
KatFile.com
Rapidgator.net
Turbobit.net
FileFactory.com
Download 2
KatFile.com
Rapidgator.net
Turbobit.net
FileFactory.com

Tracklist:

1. Spice - Born In A Trunk - 3:47
2. Uriah Heep - Simon The Bullet 
Freak - 3:29
3. Uriah Heep - Here Am I - 8:14
4. Spice - Magic Lantern - 8:32
5. Uriah Heep - Why - 11:21
6. Spice - Astranaza - 4:46
7. Uriah Heep - What's Within My 
Heart - 5:26
8. Uriah Heep - What Should Be 
Done - 4:28
9. Uriah Heep - Lucy Blues - 5:11
10. Spice - I Want You Babe (Behind 
The Green Shed 
Blues) - 5:43
11. Spice - Celebrate - 4:26
12. Spice - Schoolgirl - 3:26
13. Spice - Born In A Trunk 
(Instrumental) - 4:02
14. Uriah Heep - Look At Yourself - 
3:21

EAC-Log, CUE-Sheed & NFO:

Click to open spoiler
Exact Audio Copy V1.0 beta 2 from 29. April 2011

EAC extraction logfile from 30. August 2011, 13:33

Uriah Heep / The Lansdowne Tapes

Used drive : Optiarc DVD RW AD-7240S Adapter: 1 ID: 0

Read mode : Secure
Utilize accurate stream : Yes
Defeat audio cache : Yes
Make use of C2 pointers : No

Read offset correction : 48
Overread into Lead-In and Lead-Out : No
Fill up missing offset samples with silence : Yes
Delete leading and trailing silent blocks : No
Null samples used in CRC calculations : Yes
Used interface : Native Win32 interface for Win NT & 2000

Used output format : User Defined Encoder
Selected bitrate : 1024 kBit/s
Quality : High
Add ID3 tag : Yes
Command line compressor : C:\Program Files\Exact Audio Copy\Flac\flac.exe
Additional command line options : -6 -V -T “ARTIST=%artist%” -T “TITLE=%title%” -T “ALBUM=%albumtitle%” -T “DATE=%year%” -T “TRACKNUMBER=%tracknr%” -T “GENRE=%genre%” -T “COMMENT=%comment%” %source% -o %dest%

TOC of the extracted CD

Track | Start | Length | Start sector | End sector
———————————————————
1 | 0:00.32 | 3:47.20 | 32 | 17076
2 | 3:47.52 | 3:28.55 | 17077 | 32731
3 | 7:16.32 | 8:14.33 | 32732 | 69814
4 | 15:30.65 | 8:32.12 | 69815 | 108226
5 | 24:03.02 | 11:20.48 | 108227 | 159274
6 | 35:23.50 | 4:46.37 | 159275 | 180761
7 | 40:10.12 | 5:26.20 | 180762 | 205231
8 | 45:36.32 | 4:28.15 | 205232 | 225346
9 | 50:04.47 | 5:10.68 | 225347 | 248664
10 | 55:15.40 | 5:42.55 | 248665 | 274369
11 | 60:58.20 | 4:26.27 | 274370 | 294346
12 | 65:24.47 | 3:25.38 | 294347 | 309759
13 | 68:50.10 | 4:02.25 | 309760 | 327934
14 | 72:52.35 | 3:20.72 | 327935 | 343006
15 | 76:13.32 | 1:11.00 | 343007 | 348331

Range status and errors

Selected range

Filename E:\music\Uriah Heep\1993. The Lansdowne Tapes\Uriah Heep – The Lansdowne Tapes.wav

Peak level 100.0 %
Extraction speed 4.6 X
Range quality 100.0 %
Test CRC 5779B5E9
Copy CRC 5779B5E9
Copy OK

No errors occurred

AccurateRip summary

Track 1 accurately ripped (confidence 3) [2803169F] (AR v1)
Track 2 accurately ripped (confidence 3) [3658A2B2] (AR v1)
Track 3 accurately ripped (confidence 3) [ECFF392A] (AR v1)
Track 4 accurately ripped (confidence 3) [C18D67B4] (AR v1)
Track 5 accurately ripped (confidence 3) [3E6157D8] (AR v1)
Track 6 accurately ripped (confidence 3) [E003170B] (AR v1)
Track 7 accurately ripped (confidence 3) [5CFD3C3E] (AR v1)
Track 8 accurately ripped (confidence 3) [48EE8DEA] (AR v1)
Track 9 accurately ripped (confidence 3) [44218427] (AR v1)
Track 10 accurately ripped (confidence 3) [99D14989] (AR v1)
Track 11 accurately ripped (confidence 3) [9DE787AE] (AR v1)
Track 12 accurately ripped (confidence 3) [D5A8491A] (AR v1)
Track 13 accurately ripped (confidence 3) [EAD8C388] (AR v1)
Track 14 accurately ripped (confidence 3) [C2000630] (AR v1)
Track 15 accurately ripped (confidence 3) [B4E4ACE5] (AR v1)

All tracks accurately ripped

End of status report

==== Log checksum 1FE51D9BBD4374F52035FC93F42BF1079B6F921ED2C430FEE6F3A6A55B84BD00 ====

REM GENRE “Hard Rock”
REM DATE 1993
REM DISCID CC12240F
REM COMMENT “ExactAudioCopy v1.0b2”
PERFORMER “Uriah Heep”
TITLE “The Lansdowne Tapes”
FILE “Uriah Heep – The Lansdowne Tapes.flac” WAVE
TRACK 01 AUDIO
TITLE “Born In A Trunk”
PERFORMER “Uriah Heep”
INDEX 00 00:00:00
INDEX 01 00:00:32
TRACK 02 AUDIO
TITLE “Simon The Bullet Freak”
PERFORMER “Uriah Heep”
INDEX 00 03:45:52
INDEX 01 03:47:52
TRACK 03 AUDIO
TITLE “Here Am I”
PERFORMER “Uriah Heep”
INDEX 00 07:14:32
INDEX 01 07:16:32
TRACK 04 AUDIO
TITLE “Magic Lantern”
PERFORMER “Uriah Heep”
INDEX 00 15:29:65
INDEX 01 15:30:65
TRACK 05 AUDIO
TITLE “Why (11.18 Minute Version)”
PERFORMER “Uriah Heep”
INDEX 00 24:01:02
INDEX 01 24:03:02
TRACK 06 AUDIO
TITLE “Astranaza”
PERFORMER “Uriah Heep”
INDEX 00 35:21:50
INDEX 01 35:23:50
TRACK 07 AUDIO
TITLE “What’s Within My Heart”
PERFORMER “Uriah Heep”
INDEX 00 40:08:12
INDEX 01 40:10:12
TRACK 08 AUDIO
TITLE “What Should Be Done”
PERFORMER “Uriah Heep”
INDEX 00 45:34:32
INDEX 01 45:36:32
TRACK 09 AUDIO
TITLE “Lucy Blues”
PERFORMER “Uriah Heep”
INDEX 00 50:02:47
INDEX 01 50:04:47
TRACK 10 AUDIO
TITLE “I Want You Babe”
PERFORMER “Uriah Heep”
INDEX 00 55:13:40
INDEX 01 55:15:40
TRACK 11 AUDIO
TITLE “Celebrate”
PERFORMER “Uriah Heep”
INDEX 00 60:56:20
INDEX 01 60:58:20
TRACK 12 AUDIO
TITLE “Schoolgirl”
PERFORMER “Uriah Heep”
INDEX 00 65:22:47
INDEX 01 65:24:47
TRACK 13 AUDIO
TITLE “Born In A Trunk (Instrumental)”
PERFORMER “Uriah Heep”
INDEX 00 68:48:10
INDEX 01 68:50:10
TRACK 14 AUDIO
TITLE “Look At Yourself”
PERFORMER “Uriah Heep”
INDEX 00 72:50:35
INDEX 01 72:52:35
TRACK 15 AUDIO
TITLE “Instrumental”
PERFORMER “Uriah Heep”
INDEX 00 76:11:32
INDEX 01 76:13:32


Leave a Reply

Your email address will not be published. Required fields are marked *

Enter the text from the image below
 

This site uses Akismet to reduce spam. Learn how your comment data is processed.