Uriah Heep – The Best




Artist: Uriah Heep
Year: 1985
Genre: Rock
Notes: Discogs
Add. Notes:
Cover incl.: Yes
Encoder: FLAC
Bitrate: ~800 kBit/s (44.1 kHz/16 Bit/s)
Log & Cue incl.: Yes
Size: 421 MB
Password: “slam” (without ” “)


All Downloads/Hosters are compatible

Download 1
KatFile.com
Rapidgator.net
NitroFlare.com
Turbobit.net
Download 2
KatFile.com
Rapidgator.net
NitroFlare.com
Turbobit.net

Tracklist:

1 - Free Me - 3:35
2 - Lady In Black - 4:48
3 - Stealin' - 4:50
4 - Wizard - 3:02
5 - Look At Yourself - 5:11
6 - Gypsy - 6:41
7 - Easy Livin' - 2:37
8 - Return To Fantasy - 5:49
9 - Your Turn To Remember - 4:22
10 - Sweet Freedom - 6:36
11 - Shady Lady - 4:50
12 - Firefly - 6:18

EAC-Log, CUE-Sheed & NFO:

Click to open spoiler
Exact Audio Copy V1.0 beta 2 from 29. April 2011

EAC extraction logfile from 27. February 2012, 16:23

Uriah Heep / The Best of Uriah Heep

Used drive : Optiarc DVD RW AD-7240S Adapter: 1 ID: 0

Read mode : Secure
Utilize accurate stream : Yes
Defeat audio cache : Yes
Make use of C2 pointers : No

Read offset correction : 48
Overread into Lead-In and Lead-Out : No
Fill up missing offset samples with silence : Yes
Delete leading and trailing silent blocks : No
Null samples used in CRC calculations : Yes
Used interface : Native Win32 interface for Win NT & 2000

Used output format : User Defined Encoder
Selected bitrate : 1024 kBit/s
Quality : High
Add ID3 tag : Yes
Command line compressor : C:\Program Files\Exact Audio Copy\Flac\flac.exe
Additional command line options : -6 -V -T “ARTIST=%artist%” -T “TITLE=%title%” -T “ALBUM=%albumtitle%” -T “DATE=%year%” -T “TRACKNUMBER=%tracknr%” -T “GENRE=%genre%” -T “COMMENT=%comment%” %source% -o %dest%

TOC of the extracted CD

Track | Start | Length | Start sector | End sector
———————————————————
1 | 0:00.32 | 3:34.55 | 32 | 16136
2 | 3:35.12 | 4:48.23 | 16137 | 37759
3 | 8:23.35 | 4:50.30 | 37760 | 59539
4 | 13:13.65 | 3:02.25 | 59540 | 73214
5 | 16:16.15 | 5:10.65 | 73215 | 96529
6 | 21:27.05 | 6:41.02 | 96530 | 126606
7 | 28:08.07 | 2:37.10 | 126607 | 138391
8 | 30:45.17 | 5:49.35 | 138392 | 164601
9 | 36:34.52 | 4:22.35 | 164602 | 184286
10 | 40:57.12 | 6:36.28 | 184287 | 214014
11 | 47:33.40 | 4:50.00 | 214015 | 235764
12 | 52:23.40 | 6:18.00 | 235765 | 264114

Range status and errors

Selected range

Filename E:\music\Uriah Heep\Compilations\1985. The Best Of Uriah Heep (Bronze Rec. 610 358, Germany)\Uriah Heep – The Best of Uriah Heep.wav

Peak level 93.5 %
Extraction speed 4.0 X
Range quality 99.9 %
Test CRC 2D723EA1
Copy CRC 2D723EA1
Copy OK

No errors occurred

AccurateRip summary

Track 1 accurately ripped (confidence 3) [38386001] (AR v2)
Track 2 accurately ripped (confidence 3) [3A8F6F3E] (AR v2)
Track 3 accurately ripped (confidence 3) [555F498C] (AR v2)
Track 4 accurately ripped (confidence 2) [CDE5A3EF] (AR v2)
Track 5 accurately ripped (confidence 3) [3DC77AC9] (AR v2)
Track 6 accurately ripped (confidence 3) [2B53637F] (AR v2)
Track 7 accurately ripped (confidence 3) [4F45EEC9] (AR v2)
Track 8 accurately ripped (confidence 2) [06583EF0] (AR v2)
Track 9 accurately ripped (confidence 2) [615AC986] (AR v2)
Track 10 accurately ripped (confidence 2) [BFDEE2A5] (AR v2)
Track 11 accurately ripped (confidence 2) [5C2E9D38] (AR v2)
Track 12 accurately ripped (confidence 2) [E1846E6F] (AR v2)

All tracks accurately ripped

End of status report

==== Log checksum 033D10EAAA0C288F9FAA306BC73E99C5BA5A4B1E7D723B2EA057BEC50BCE4DA6 ====

REM GENRE Rock
REM DATE 1985
REM DISCID C20DC10C
REM COMMENT “ExactAudioCopy v1.0b2”
PERFORMER “Uriah Heep”
TITLE “The Best of Uriah Heep”
FILE “Uriah Heep – The Best of Uriah Heep.flac” WAVE
TRACK 01 AUDIO
TITLE “Free Me”
PERFORMER “Uriah Heep”
INDEX 00 00:00:00
INDEX 01 00:00:32
TRACK 02 AUDIO
TITLE “Lady in Black”
PERFORMER “Uriah Heep”
INDEX 00 03:33:32
INDEX 01 03:35:12
TRACK 03 AUDIO
TITLE “Stealin'”
PERFORMER “Uriah Heep”
INDEX 00 08:22:32
INDEX 01 08:23:35
TRACK 04 AUDIO
TITLE “Wizard”
PERFORMER “Uriah Heep”
INDEX 00 13:13:12
INDEX 01 13:13:65
TRACK 05 AUDIO
TITLE “Look at Yourself”
PERFORMER “Uriah Heep”
INDEX 00 16:14:70
INDEX 01 16:16:15
TRACK 06 AUDIO
TITLE “Gypsy”
PERFORMER “Uriah Heep”
INDEX 00 21:24:50
INDEX 01 21:27:05
TRACK 07 AUDIO
TITLE “Easy Livin'”
PERFORMER “Uriah Heep”
INDEX 00 28:07:52
INDEX 01 28:08:07
TRACK 08 AUDIO
TITLE “Return to Fantasy”
PERFORMER “Uriah Heep”
INDEX 00 30:43:72
INDEX 01 30:45:17
TRACK 09 AUDIO
TITLE “Your Turn to Remember”
PERFORMER “Uriah Heep”
INDEX 00 36:33:30
INDEX 01 36:34:52
TRACK 10 AUDIO
TITLE “Sweet Freedom”
PERFORMER “Uriah Heep”
INDEX 00 40:56:35
INDEX 01 40:57:12
TRACK 11 AUDIO
TITLE “Shady Lady”
PERFORMER “Uriah Heep”
INDEX 00 47:32:37
INDEX 01 47:33:40
TRACK 12 AUDIO
TITLE “Firefly”
PERFORMER “Uriah Heep”
INDEX 00 52:22:17
INDEX 01 52:23:40


Leave a Reply

Your email address will not be published. Required fields are marked *

This site uses Akismet to reduce spam. Learn how your comment data is processed.