Uriah Heep – Sweet Freedom




Artist: Uriah Heep
Year: 1973/1987
Genre: Rock
Notes: Discogs
Add. Notes:
Cover incl.: Yes
Encoder: FLAC
Bitrate: ~800 kBit/s (44.1 kHz/16 Bit/s)
Log & Cue incl.: Yes
Size: 298,8 MB
Password: “slam” (without ” “)


All Downloads/Hosters are compatible

Download 1
Turbobit.net
KatFile.com
Rapidgator.net
Usersdrive.com
Download 2
Turbobit.net
KatFile.com
Rapidgator.net
Usersdrive.com

Tracklist:

1 - Dreamer - 3:40
2 - Stealin' - 4:48
3 - One Day - 2:44
4 - Sweet Freedom - 6:34
5 - If I Had The Time - 5:40
6 - Seven Stars - 3:50
7 - Circus - 2:41
8 - Pilgrim - 6:06

EAC-Log, CUE-Sheed & NFO:

Click to open spoiler
Exact Audio Copy V1.0 beta 2 from 29. April 2011

EAC extraction logfile from 16. June 2011, 23:01

Uriah Heep / Sweet Freedom

Used drive : Optiarc DVD RW AD-7240S Adapter: 1 ID: 0

Read mode : Secure
Utilize accurate stream : Yes
Defeat audio cache : Yes
Make use of C2 pointers : No

Read offset correction : 48
Overread into Lead-In and Lead-Out : No
Fill up missing offset samples with silence : Yes
Delete leading and trailing silent blocks : No
Null samples used in CRC calculations : Yes
Used interface : Native Win32 interface for Win NT & 2000

Used output format : User Defined Encoder
Selected bitrate : 1024 kBit/s
Quality : High
Add ID3 tag : Yes
Command line compressor : C:\Program Files\Exact Audio Copy\Flac\flac.exe
Additional command line options : -6 -V -T “ARTIST=%artist%” -T “TITLE=%title%” -T “ALBUM=%albumtitle%” -T “DATE=%year%” -T “TRACKNUMBER=%tracknr%” -T “GENRE=%genre%” -T “COMMENT=%comment%” %source% -o %dest%

TOC of the extracted CD

Track | Start | Length | Start sector | End sector
———————————————————
1 | 0:00.33 | 3:45.00 | 33 | 16907
2 | 3:45.33 | 4:53.25 | 16908 | 38907
3 | 8:38.58 | 2:48.25 | 38908 | 51532
4 | 11:27.08 | 6:38.25 | 51533 | 81407
5 | 18:05.33 | 5:44.25 | 81408 | 107232
6 | 23:49.58 | 3:54.00 | 107233 | 124782
7 | 27:43.58 | 2:45.25 | 124783 | 137182
8 | 30:29.08 | 7:05.32 | 137183 | 169089

Range status and errors

Selected range

Filename E:\music\Uriah Heep\1973. Sweet Freedom\1973. Sweet Freedom (Bronze Rec. 260 316, Germany)\Uriah Heep – Sweet Freedom.wav

Peak level 95.4 %
Extraction speed 3.5 X
Range quality 100.0 %
Test CRC C11C5DEA
Copy CRC C11C5DEA
Copy OK

No errors occurred

AccurateRip summary

Track 1 accurately ripped (confidence 1) [D5F60B6A] (AR v1)
Track 2 accurately ripped (confidence 1) [73AC0C9A] (AR v1)
Track 3 accurately ripped (confidence 1) [A134ACD2] (AR v1)
Track 4 accurately ripped (confidence 1) [ABF0CB94] (AR v1)
Track 5 accurately ripped (confidence 1) [5D969166] (AR v1)
Track 6 accurately ripped (confidence 1) [89522FD3] (AR v1)
Track 7 accurately ripped (confidence 1) [118320C3] (AR v1)
Track 8 accurately ripped (confidence 1) [BBD6ADB1] (AR v1)

All tracks accurately ripped

End of status report

==== Log checksum D1CEC0ABBAA6F6EC2F8E20260DF9A3B6180395324D1F676D7A80BB84D1B7C642 ====

REM GENRE Rock
REM DATE 1990
REM DISCID 6308CE08
REM COMMENT “ExactAudioCopy v1.0b2”
PERFORMER “Uriah Heep”
TITLE “Sweet Freedom”
FILE “Uriah Heep – Sweet Freedom.flac” WAVE
TRACK 01 AUDIO
TITLE “Dreamer”
PERFORMER “Uriah Heep”
INDEX 00 00:00:00
INDEX 01 00:00:33
TRACK 02 AUDIO
TITLE “Stealin'”
PERFORMER “Uriah Heep”
INDEX 00 03:42:38
INDEX 01 03:45:33
TRACK 03 AUDIO
TITLE “One Day”
PERFORMER “Uriah Heep”
INDEX 00 08:36:15
INDEX 01 08:38:58
TRACK 04 AUDIO
TITLE “Sweet Freedom”
PERFORMER “Uriah Heep”
INDEX 00 11:24:50
INDEX 01 11:27:08
TRACK 05 AUDIO
TITLE “If I Had The Time”
PERFORMER “Uriah Heep”
INDEX 00 18:03:05
INDEX 01 18:05:33
TRACK 06 AUDIO
TITLE “Seven Stars”
PERFORMER “Uriah Heep”
INDEX 00 23:46:48
INDEX 01 23:49:58
TRACK 07 AUDIO
TITLE “Circus”
PERFORMER “Uriah Heep”
INDEX 00 27:40:03
INDEX 01 27:43:58
TRACK 08 AUDIO
TITLE “Pilgrim”
PERFORMER “Uriah Heep”
INDEX 00 30:26:30
INDEX 01 30:29:08


Leave a Reply

Your email address will not be published. Required fields are marked *

This site uses Akismet to reduce spam. Learn how your comment data is processed.