Uriah Heep – Sweet Freedom (Remastered)




Artist: Uriah Heep
Year: 1973/1996
Genre: Rock
Notes: Discogs
Add. Notes: Remastered
Cover incl.: Yes
Encoder: FLAC
Bitrate: ~900 kBit/s (44.1 kHz/16 Bit/s)
Log & Cue incl.: Yes
Size: 566 MB
Password: “slam” (without ” “)


All Downloads/Hosters are compatible

Download 1
KatFile.com
Turbobit.net
FileFactory.com
Rapidgator.net
Download 2
KatFile.com
Turbobit.net
FileFactory.com
Rapidgator.net

Tracklist:

1 Dreamer 3:41
2 Stealin' 4:50
3 One Day 2:47
4 Sweet Freedom 6:29
5 If I Had The Time 5:38
6 Seven Stars 3:49
7 Circus 2:43
8 Pilgrim 7:07

Bonus Tracks
9 Sunshine (B-Side To Single Stealin') 4:48
10 Stealin' (Original Edited Version) 3:17
11 Seven Stars (Previously Unreleased Version) 5:29

EAC-Log, CUE-Sheed & NFO:

Click to open spoiler
Exact Audio Copy V0.99 prebeta 5 from 4. May 2009

Отчёт EAC об извлечении, выполненном 18. апреля 2011, 12:53

Uriah Heep / Sweet Freedom

Дисковод: Optiarc DVD RW AD-7240S Adapter: 1 ID: 0

Режим чтения : Достоверность
Использование точного потока : Да
Отключение кэша аудио : Да
Использование указателей C2 : Нет

Коррекция смещения при чтении : 48
Способность читать области Lead-in и Lead-out : Нет
Заполнение пропущенных сэмплов тишиной : Да
Удаление блоков с тишиной в начале и конце : Нет
При вычислениях CRC использовались нулевые сэмплы : Да
Интерфейс : Встроенный Win32-интерфейс для Win NT/2000

Выходной формат : Пользовательский кодировщик
Выбранный битрейт : 768 kBit/s
Качество : Высокий
Добавление ID3-тэга : Нет
Утилита сжатия : C:\Program Files\Exact Audio Copy\FLAC\FLAC.EXE
Дополнительные параметры : -6 -V -T “ARTIST=%a” -T “TITLE=%t” -T “ALBUM=%g” -T “DATE=%y” -T “TRACKNUMBER=%n” -T “GENRE=%m” -T “COMMENT=%e” %s -o %d

TOC извлечённого CD

Трек | Старт | Длительность | Начальный сектор | Конечный сектор
———————————————————————
1 | 0:00.00 | 3:41.72 | 0 | 16646
2 | 3:41.72 | 4:50.50 | 16647 | 38446
3 | 8:32.47 | 2:47.08 | 38447 | 50979
4 | 11:19.55 | 6:29.25 | 50980 | 80179
5 | 17:49.05 | 5:38.25 | 80180 | 105554
6 | 23:27.30 | 3:49.15 | 105555 | 122744
7 | 27:16.45 | 2:43.15 | 122745 | 134984
8 | 29:59.60 | 7:07.10 | 134985 | 167019
9 | 37:06.70 | 4:48.50 | 167020 | 188669
10 | 41:55.45 | 3:17.57 | 188670 | 203501
11 | 45:13.27 | 5:29.23 | 203502 | 228199

Характеристики диапазона извлечения и сообщения об ошибках

Выбранный диапазон

Имя файла E:\music\Uriah Heep\1973. Sweet Freedom\1973. Sweet Freedom (Castle ESMCD 338, England)\Uriah Heep – Sweet Freedom.wav

Пиковый уровень 100.0 %
Качество диапазона 100.0 %
CRC теста FFEE8617
CRC копии FFEE8617
Копирование… OK

Ошибок не произошло

AccurateRip: сводка

Трек 1 точное извлечение (доверие 12) [8F14E766]
Трек 2 точное извлечение (доверие 12) [3877C2BA]
Трек 3 точное извлечение (доверие 12) [30B1BF10]
Трек 4 точное извлечение (доверие 12) [38A7A727]
Трек 5 точное извлечение (доверие 12) [59817AEB]
Трек 6 точное извлечение (доверие 12) [E192E35D]
Трек 7 точное извлечение (доверие 12) [9B51921F]
Трек 8 точное извлечение (доверие 12) [980A0247]
Трек 9 точное извлечение (доверие 12) [EBF68527]
Трек 10 точное извлечение (доверие 12) [67FACF5A]
Трек 11 точное извлечение (доверие 12) [5C0C8225]

Все треки извлечены точно

Конец отчёта

REM GENRE “Hard Rock”
REM DATE 1973
REM DISCID 810BE20B
REM COMMENT “ExactAudioCopy v0.99pb5”
PERFORMER “Uriah Heep”
TITLE “Sweet Freedom ”
FILE “Uriah Heep – Sweet Freedom.flac” WAVE
TRACK 01 AUDIO
TITLE “Dreamer”
PERFORMER “Uriah Heep”
INDEX 01 00:00:00
TRACK 02 AUDIO
TITLE “Stealin'”
PERFORMER “Uriah Heep”
INDEX 01 03:41:72
TRACK 03 AUDIO
TITLE “One Day”
PERFORMER “Uriah Heep”
INDEX 00 08:30:60
INDEX 01 08:32:47
TRACK 04 AUDIO
TITLE “Sweet Freedom”
PERFORMER “Uriah Heep”
INDEX 00 11:17:02
INDEX 01 11:19:55
TRACK 05 AUDIO
TITLE “If I Had The Time”
PERFORMER “Uriah Heep”
INDEX 00 17:47:55
INDEX 01 17:49:05
TRACK 06 AUDIO
TITLE “Seven Stars”
PERFORMER “Uriah Heep”
INDEX 00 23:26:15
INDEX 01 23:27:30
TRACK 07 AUDIO
TITLE “Circus”
PERFORMER “Uriah Heep”
INDEX 00 27:15:60
INDEX 01 27:16:45
TRACK 08 AUDIO
TITLE “Pilgrim”
PERFORMER “Uriah Heep”
INDEX 00 29:59:27
INDEX 01 29:59:60
TRACK 09 AUDIO
TITLE “Sunshine ( B-side to single Stealin’)”
PERFORMER “Uriah Heep”
INDEX 00 37:05:65
INDEX 01 37:06:70
TRACK 10 AUDIO
TITLE “Stealin’ (Original edited version)”
PERFORMER “Uriah Heep”
INDEX 00 41:53:17
INDEX 01 41:55:45
TRACK 11 AUDIO
TITLE “Seven Stars (previously Unreleased version)”
PERFORMER “Uriah Heep”
INDEX 00 45:12:40
INDEX 01 45:13:27


Leave a Reply

Your email address will not be published. Required fields are marked *

Enter the text from the image below
 

This site uses Akismet to reduce spam. Learn how your comment data is processed.