Uriah Heep – Sweet Freedom (Reissue)




[Total: 0    Average: 0/5]

Artist: Uriah Heep
Year: 1973/1990
Genre: Rock
Notes: Discogs
Add. Notes: Reissue
Cover incl.: Yes
Encoder: FLAC
Bitrate: ~800 kBit/s (44.1 kHz/16 Bit/s)
Log & Cue incl.: Yes
Size: 340,6 MB
Password: “slam” (without ” “)


All Downloads/Hosters are compatible

Download 1
KatFile.com
Turbobit.net
FileFactory.com
Rapidgator.net
Download 2
KatFile.com
Turbobit.net
FileFactory.com
Rapidgator.net
Download 3
KatFile.com
Turbobit.net
FileFactory.com
Rapidgator.net

Tracklist:

1 Dreamer 3:41
2 Stealin' 4:49
3 One Day 2:47
4 Sweet Freedom 7:08
5 If I Had The Time 5:43
6 Seven Stars 4:28
7 Circus 2:44
8 Pilgrim 7:10

Bonus-Track:
9 Sunshine 4:48

EAC-Log, CUE-Sheed & NFO:

Click to open spoiler
Exact Audio Copy V0.99 prebeta 5 from 4. May 2009

Отчёт EAC об извлечении, выполненном 7. августа 2009, 22:16

Uriah Heep / Sweet Freedom

Дисковод: MATSHITADVD-RAM UJ-850S Adapter: 1 ID: 0

Режим чтения : Достоверность
Использование точного потока : Да
Отключение кэша аудио : Да
Использование указателей C2 : Нет

Коррекция смещения при чтении : 102
Способность читать области Lead-in и Lead-out : Нет
Заполнение пропущенных сэмплов тишиной : Да
Удаление блоков с тишиной в начале и конце : Нет
При вычислениях CRC использовались нулевые сэмплы : Да
Интерфейс : Встроенный Win32-интерфейс для Win NT/2000

Выходной формат : Пользовательский кодировщик
Выбранный битрейт : 1024 kBit/s
Качество : Высокий
Добавление ID3-тэга : Нет
Утилита сжатия : C:\Program Files\Exact Audio Copy\Flac\flac.exe
Дополнительные параметры : -8 -V -T “ARTIST=%a” -T “TITLE=%t” -T “ALBUM=%g” -T “DATE=%y” -T “TRACKNUMBER=%n” -T “TOTALTRACKS=%x” -T “GENRE=%m” -T “ALBUM ARTIST=%v” -T “ALBUMARTIST=%v” -T “COMMENT=EAC V0.99 prebeta 5, Secure Mode, AccurateRip, FLAC -8” %s

TOC извлечённого CD

Трек | Старт | Длительность | Начальный сектор | Конечный сектор
———————————————————————
1 | 0:00.00 | 3:44.50 | 0 | 16849
2 | 3:44.50 | 4:54.30 | 16850 | 38929
3 | 8:39.05 | 2:50.05 | 38930 | 51684
4 | 11:29.10 | 6:36.65 | 51685 | 81449
5 | 18:06.00 | 5:46.35 | 81450 | 107434
6 | 23:52.35 | 3:55.15 | 107435 | 125074
7 | 27:47.50 | 2:46.25 | 125075 | 137549
8 | 30:34.00 | 7:05.05 | 137550 | 169429
9 | 37:39.05 | 4:47.45 | 169430 | 190999

Характеристики диапазона извлечения и сообщения об ошибках

Выбранный диапазон

Имя файла C:\Users\ALIK\Desktop\music\Uriah Heep Sweet Freedom\Uriah Heep – Sweet Freedom.wav

Пиковый уровень 94.7 %
Качество диапазона 100.0 %
CRC теста DFA8678D
CRC копии DFA8678D
Копирование… OK

Ошибок не произошло

AccurateRip: сводка

Трек 1 точное извлечение (доверие 4) [61303154]
Трек 2 точное извлечение (доверие 4) [3E7AB814]
Трек 3 точное извлечение (доверие 4) [E9E8707B]
Трек 4 точное извлечение (доверие 4) [B36F948D]
Трек 5 точное извлечение (доверие 5) [8C7D4C5C]
Трек 6 точное извлечение (доверие 5) [82B27280]
Трек 7 точное извлечение (доверие 5) [0A726EEA]
Трек 8 точное извлечение (доверие 5) [D923CB85]
Трек 9 точное извлечение (доверие 5) [692C21D0]

Все треки извлечены точно

Конец отчёта

REM DATE 1973
REM DISCID 7409F209
REM COMMENT “ExactAudioCopy v0.99pb5”
PERFORMER “Uriah Heep”
TITLE “Sweet Freedom”
FILE “Uriah Heep – Sweet Freedom.flac” WAVE
TRACK 01 AUDIO
TITLE “Dreamer”
PERFORMER “Uriah Heep”
INDEX 01 00:00:00
TRACK 02 AUDIO
TITLE “Stealin'”
PERFORMER “Uriah Heep”
INDEX 00 03:41:12
INDEX 01 03:44:50
TRACK 03 AUDIO
TITLE “One Day”
PERFORMER “Uriah Heep”
INDEX 00 08:34:72
INDEX 01 08:39:05
TRACK 04 AUDIO
TITLE “Sweet Freedom”
PERFORMER “Uriah Heep”
INDEX 00 11:24:70
INDEX 01 11:29:10
TRACK 05 AUDIO
TITLE “If I Had The Time”
PERFORMER “Uriah Heep”
INDEX 00 18:04:22
INDEX 01 18:06:00
TRACK 06 AUDIO
TITLE “Seven Stars”
PERFORMER “Uriah Heep”
INDEX 00 23:44:10
INDEX 01 23:52:35
TRACK 07 AUDIO
TITLE “Circus”
PERFORMER “Uriah Heep”
INDEX 00 27:42:40
INDEX 01 27:47:50
TRACK 08 AUDIO
TITLE “Pilgrim”
PERFORMER “Uriah Heep”
INDEX 00 30:29:65
INDEX 01 30:34:00
TRACK 09 AUDIO
TITLE “Sunshine”
PERFORMER “Uriah Heep”
INDEX 00 37:36:12
INDEX 01 37:39:05


Spread the Download

Leave a Reply

Your email address will not be published. Required fields are marked *

Enter the text from the image below
 

This site uses Akismet to reduce spam. Learn how your comment data is processed.