Uriah Heep – Sweet Freedom




Artist: Uriah Heep
Year: 1973/1989
Genre: Rock
Notes: Discogs
Add. Notes:
Cover incl.: Yes
Encoder: FLAC
Bitrate: ~800 kBit/s (44.1 kHz/16 Bit/s)
Log & Cue incl.: Yes
Size: 275 MB
Password: “slam” (without ” “)


All Downloads/Hosters are compatible

Download 1
KatFile.com
Rapidgator.net
Turbobit.net
FileFactory.com
Download 2
KatFile.com
Rapidgator.net
Turbobit.net
FileFactory.com

Tracklist:

1 - Dreamer - 03:44
2 - Stealin' - 04:53
3 - One Day - 02:49
4 - Sweet Freedom - 06:38
5 - If I Had The Time - 05:44
6 - Seven Stars - 03:54
7 - Circus - 02:46
8 - Pilgrim - 07:08

EAC-Log, CUE-Sheed & NFO:

Click to open spoiler
Exact Audio Copy V1.0 beta 3 from 29. August 2011

EAC extraction logfile from 9. October 2014, 23:52

Uriah Heep / Sweet Freedom

Used drive : SONY BD RW BDX-S600U Adapter: 2 ID: 1

Read mode : Secure
Utilize accurate stream : Yes
Defeat audio cache : Yes
Make use of C2 pointers : No

Read offset correction : 48
Overread into Lead-In and Lead-Out : No
Fill up missing offset samples with silence : Yes
Delete leading and trailing silent blocks : No
Null samples used in CRC calculations : Yes
Used interface : Native Win32 interface for Win NT & 2000

Used output format : User Defined Encoder
Selected bitrate : 128 kBit/s
Quality : High
Add ID3 tag : No
Command line compressor : C:\Program Files (x86)\Exact Audio Copy\Flac\flac.exe
Additional command line options : -V -8 -T “Date=%year%” -T “Genre=%genre%” %source%

TOC of the extracted CD

Track | Start | Length | Start sector | End sector
———————————————————
1 | 0:00.33 | 3:44.25 | 33 | 16857
2 | 3:44.58 | 4:53.70 | 16858 | 38902
3 | 8:38.53 | 2:49.57 | 38903 | 51634
4 | 11:28.35 | 6:38.30 | 51635 | 81514
5 | 18:06.65 | 5:44.65 | 81515 | 107379
6 | 23:51.55 | 3:54.60 | 107380 | 124989
7 | 27:46.40 | 2:46.00 | 124990 | 137439
8 | 30:32.40 | 7:08.63 | 137440 | 169602

Range status and errors

Selected range

Filename D:\Uriah Heep – Discography\Studio\1973. Sweet Freedom\1973. Sweet Freedom (Carrere,Legacy Rec. 96 662,France)\Uriah Heep – Sweet Freedom.wav

Peak level 80.8 %
Extraction speed 6.1 X
Range quality 100.0 %
Test CRC 6D4E7210
Copy CRC 6D4E7210
Copy OK

No errors occurred

AccurateRip summary

Track 1 accurately ripped (confidence 1) [FBCB4FE2] (AR v1)
Track 2 accurately ripped (confidence 1) [EB42AFCB] (AR v1)
Track 3 accurately ripped (confidence 1) [A3855C65] (AR v1)
Track 4 accurately ripped (confidence 1) [9F43A118] (AR v1)
Track 5 accurately ripped (confidence 1) [290544D2] (AR v1)
Track 6 accurately ripped (confidence 1) [1554BC44] (AR v1)
Track 7 accurately ripped (confidence 1) [AA05980F] (AR v1)
Track 8 accurately ripped (confidence 1) [20C7BE4B] (AR v1)

All tracks accurately ripped

End of status report

—- CUETools DB Plugin V2.1.4

[CTDB TOCID: 27g89oBu10MR64w6.7We4v0C7jg-] disk not present in database
Submit result: 27g89oBu10MR64w6.7We4v0C7jg- has been uploaded

==== Log checksum C4E0BF295D69B7C8AC1D651EAE3F32E7FC091DB82D9A4C06323671B3301AC2FE ====

REM GENRE Rock
REM DATE 1973
REM DISCID 6308D508
REM COMMENT “ExactAudioCopy v1.0b3”
CATALOG 0000000000000
PERFORMER “Uriah Heep”
TITLE “Sweet Freedom”
FILE “Uriah Heep – Sweet Freedom.flac” WAVE
TRACK 01 AUDIO
TITLE “Dreamer”
PERFORMER “Uriah Heep”
INDEX 00 00:00:00
INDEX 01 00:00:33
TRACK 02 AUDIO
TITLE “Stealin'”
PERFORMER “Uriah Heep”
INDEX 00 03:41:38
INDEX 01 03:44:58
TRACK 03 AUDIO
TITLE “One Day”
PERFORMER “Uriah Heep”
INDEX 00 08:35:33
INDEX 01 08:38:53
TRACK 04 AUDIO
TITLE “Sweet Freedom”
PERFORMER “Uriah Heep”
INDEX 00 11:24:60
INDEX 01 11:28:35
TRACK 05 AUDIO
TITLE “If I Had The Time”
PERFORMER “Uriah Heep”
INDEX 00 18:04:13
INDEX 01 18:06:65
TRACK 06 AUDIO
TITLE “Seven Stars”
PERFORMER “Uriah Heep”
INDEX 00 23:46:18
INDEX 01 23:51:55
TRACK 07 AUDIO
TITLE “Circus”
PERFORMER “Uriah Heep”
INDEX 00 27:41:70
INDEX 01 27:46:40
TRACK 08 AUDIO
TITLE “Pilgrim”
PERFORMER “Uriah Heep”
INDEX 00 30:29:33
INDEX 01 30:32:40


Leave a Reply

Your email address will not be published. Required fields are marked *

Enter the text from the image below
 

This site uses Akismet to reduce spam. Learn how your comment data is processed.